Ссылка на приватное зеркало нашего сайта всего за 1$. Внимание количество ограничено!!!

2 сезон

iTunes

1 сезон

1

iTunes

iTunes

iTunes

1 сезон

RePack

30

ИГРА 18+

pack

ВАЖНО

!!Акция!!

Alien_RageХит недели

RePack

MK11
pack

Забери бонус

RePack

jed

!!Акция!!

Alien_Rage

RePack

fifa19

RePack

Assassins Creed: Odyssey

RePack

NEED FOR SPEED™ PAYBACK

4 сезон

9 сезон

Бесстыжие 9 сезон

Все сериалы

все сериалы на PB.wtf

RePack

FAR CRY 5
  

Прикончи их всех / Kill'em All (Питер Малота) [2017, боевик, BDRip 1080p] MVO [Лицензия] pb.wtf

Прикончи их всех через торрент pb.wtf

Размер: 7.69 GB | Добавлен: 3 года 4 мес. назад | Торрент скачан:191 раз
Скачать  

16-06-2017 19:05 Прикончи их всех Скачать торрент  

Прикончи их всех / Kill'em All
Год выпуска: 2017
Страна: США
Жанр: боевик
Продолжительность: 01:35:50
Перевод: Профессиональный многоголосый - [Лицензия]
Субтитры: Русские, английские

Режиссер: Питер Малота

rating

В ролях:

Жан-Клод Ван Дамм, Петер Стормаре, Отем Ризер, Мария Кончита Алонсо, Дэниэл Бернхард, Кристофер Ван Варенберг, Джеймс П. Беннетт, Ганс Марреро, Пол Сэмпсон

Описание:

В обычную американскую больницу поступает необычный пациент, находящийся при смерти после массовой перестрелки. Бойня возобновляется, когда по его следу приходит группа вооружённых налётчиков. Оставшейся в живых свидетельнице — молодой медсестре Сюзанне — придётся иметь дело с агентами ФБР и участниками международного заговора.

Качество: BDRip 1080p
Формат: MKV
Видео кодек: H.264
Аудио кодек: AC3

Видео: MPEG-4 AVC, 1920x800, 10.2 Mbit/s, 23.976 fps
Аудио#1: 48 kHz, AC3, 5.1, 640 Kbps | Лицензия |
Аудио#2: 48 kHz, AC3, 5.1, 640 Kbps | Оригинал | ENG |
скриншот   скриншот   скриншот   скриншот   скриншот  

General
Unique ID : 234187581088645701777281522145830973073 (0xB02EE3335881CA92ABA6CA37BA4D2E91)
Complete name : F:VideoKill.Em.All.2017.Lic.BDRip.1080p.ExKinoRay.mkv
Format : Matroska
Format version : Version 4 / Version 2
File size : 7.69 GiB
Duration : 1 h 35 min
Overall bit rate : 11.5 Mb/s
Encoded date : UTC 2017-06-16 15:09:23
Writing application : mkvmerge v12.0.0 ('Trust / Lust') 64bit
Writing library : libebml v1.3.4 + libmatroska v1.4.5

Video
ID : 1
Format : AVC
Format/Info : Advanced Video Codec
Format profile : High@L4.1
Format settings, CABAC : Yes
Format settings, ReFrames : 5 frames
Codec ID : V_MPEG4/ISO/AVC
Duration : 1 h 35 min
Bit rate : 10.2 Mb/s
Width : 1 920 pixels
Height : 800 pixels
Display aspect ratio : 2.40:1
Frame rate mode : Constant
Frame rate : 23.976 (24000/1001) FPS
Color space : YUV
Chroma subsampling : 4:2:0
Bit depth : 8 bits
Scan type : Progressive
Bits/(Pixel*Frame) : 0.277
Stream size : 6.83 GiB (89%)
Writing library : x264 core 146 r2538 121396c
Encoding settings : cabac=1 / ref=5 / deblock=1:-3:-3 / analyse=0x3:0x133 / me=esa / subme=11 / psy=1 / psy_rd=1.05:0.05 / mixed_ref=1 / me_range=32 / chroma_me=1 / trellis=2 / 8x8dct=1 / cqm=0 / deadzone=21,11 / fast_pskip=0 / chroma_qp_offset=-3 / threads=12 / lookahead_threads=2 / sliced_threads=0 / nr=0 / decimate=0 / interlaced=0 / bluray_compat=0 / constrained_intra=0 / bframes=10 / b_pyramid=2 / b_adapt=2 / b_bias=0 / direct=3 / weightb=1 / open_gop=0 / weightp=2 / keyint=240 / keyint_min=23 / scenecut=40 / intra_refresh=0 / rc_lookahead=50 / rc=2pass / mbtree=0 / bitrate=10200 / ratetol=1.0 / qcomp=0.60 / qpmin=0 / qpmax=69 / qpstep=4 / cplxblur=20.0 / qblur=0.5 / vbv_maxrate=50000 / vbv_bufsize=62500 / nal_hrd=none / filler=0 / ip_ratio=1.43 / pb_ratio=1.34 / aq=3:0.80
Language : English
Default : Yes
Forced : No

Audio #1
ID : 2
Format : AC-3
Format/Info : Audio Coding 3
Format settings, Endianness : Big
Codec ID : A_AC3
Duration : 1 h 35 min
Bit rate mode : Constant
Bit rate : 640 kb/s
Channel(s) : 6 channels
Channel positions : Front: L C R, Side: L R, LFE
Sampling rate : 48.0 kHz
Frame rate : 31.250 FPS (1536 spf)
Bit depth : 16 bits
Compression mode : Lossy
Stream size : 439 MiB (6%)
Title : MVO [License]
Language : Russian
Service kind : Complete Main
Default : Yes
Forced : No

Audio #2
ID : 3
Format : AC-3
Format/Info : Audio Coding 3
Format settings, Endianness : Big
Codec ID : A_AC3
Duration : 1 h 35 min
Bit rate mode : Constant
Bit rate : 640 kb/s
Channel(s) : 6 channels
Channel positions : Front: L C R, Side: L R, LFE
Sampling rate : 48.0 kHz
Frame rate : 31.250 FPS (1536 spf)
Bit depth : 16 bits
Compression mode : Lossy
Stream size : 439 MiB (6%)
Title : Original
Language : English
Service kind : Complete Main
Default : No
Forced : No

Text #1
ID : 4
Format : UTF-8
Codec ID : S_TEXT/UTF8
Codec ID/Info : UTF-8 Plain Text
Duration : 1 h 35 min
Bit rate : 52 b/s
Count of elements : 805
Stream size : 36.9 KiB (0%)
Title : Full
Language : Russian
Default : No
Forced : No

Text #2
ID : 5
Format : UTF-8
Codec ID : S_TEXT/UTF8
Codec ID/Info : UTF-8 Plain Text
Duration : 1 h 28 min
Bit rate : 36 b/s
Count of elements : 757
Stream size : 23.5 KiB (0%)
Title : Full
Language : English
Default : No
Forced : No

Text #3
ID : 6
Format : UTF-8
Codec ID : S_TEXT/UTF8
Codec ID/Info : UTF-8 Plain Text
Duration : 1 h 34 min
Bit rate : 44 b/s
Count of elements : 1058
Stream size : 30.9 KiB (0%)
Title : SDH
Language : English
Default : No
Forced : No

Menu
00:00:00.000 : en:Chapter 1
00:10:02.602 : en:Chapter 2
00:15:03.653 : en:Chapter 3
00:20:25.599 : en:Chapter 4
00:23:32.661 : en:Chapter 5
00:30:05.679 : en:Chapter 6
00:38:21.716 : en:Chapter 7
00:43:43.454 : en:Chapter 8
00:48:37.873 : en:Chapter 9
00:53:32.000 : en:Chapter 10
00:58:52.279 : en:Chapter 11
01:03:58.334 : en:Chapter 12
01:08:31.065 : en:Chapter 13
01:12:44.068 : en:Chapter 14
01:21:30.177 : en:Chapter 15
01:28:14.122 : en:Chapter 16
pb.wtf



Скачать Прикончи их всех через торрент http://i96.fastpic.ru/big/2017/0616/82/dbb36ebe3ef1fc6c09440c10debddf82.png Скачать фильм Прикончи их всех через торрент бесплантно в хорошем качестве Описание: В обычную американскую больницу поступает необычный пациент, находящийся при смерти после массовой перестрелки. Бойня ... 10 10 11
Торрент: Зарегистрирован [2017-06-16 19:05] · скачан: 191 раз
Статус: √ проверено
Размер: 7.69 GB
Как cкачать? Как скачать Прикончи их всех через торрент | qTorrent



Последний раз редактировалось: bober100 (2017-06-16 19:54), всего редактировалось 1 раз

28-11-2019 20:33  

Отключить всю рекламу на сайте

16-06-2017 19:50 Прикончи их всех Скачать торрент  

bober100, отчет МИ с BDREMUX.1080p

Снимите отчет МИ с раздаваемого файла, заполните тех данные согласно полученного отчета.pb.wtf



16-06-2017 19:56 Прикончи их всех Скачать торрент  

-Lexx-, пардон не заметил pb.wtf



    Дорогой пользователь! Огромная просьба, поблагодарите релизера, оцените раздачу и оставьте свои комментарий, если Вы скачали Прикончи их всех через торрент бесплатно! Внесите свою лепту в развитие PiratBit!
    Комментировать посты могут только пользователи прошедшие не сложную регистрацию
    Показать сообщения:    

    Прикончи их всех через торрент
    Скачать бесплатно Прикончи их всех
    Прикончи их всех скачать торрент
    Прикончи их всех смотреть онлайн
    Cкачать фильм Прикончи их всех бесплатно
    Прикончи их всех скачать торрент в хорошем качестве
    Прикончи их всех смотреть онлайн бесплатно в хорошем качестве


    Вы не можете начинать темы
    Вы не можете отвечать на сообщения
    Вы не можете редактировать свои сообщения
    Вы не можете удалять свои сообщения
    Вы не можете голосовать в опросах
    Вы не можете прикреплять файлы к сообщениям
    Вы можете скачивать файлы