Ссылка на приватное зеркало всего за 1$. Внимание количество ограничено!!!

OK

1+1

iTunes

мы

OK

1

WEB-DLRip

Джокер

Пифагор

Ведьмак / The Witcher сериал

Лицензия

ПШазам

ОК

Оно 2

iTunes

30
pack

Вам бонус

ВАЖНО

!!Акция!!

Alien_RageХит недели

RePack

Resident Evil 21

ИГРА 18+

pack

RePack

jed

RePack

fifa19

RePack

Assassins Creed: Odyssey

RePack

NEED FOR SPEED™ PAYBACK

4 сезон

9 сезон

Бесстыжие 9 сезон

Все сериалы

все сериалы на PB.wtf

RePack

FAR CRY 5
  

Эль Чапо / El Chapo / Сезон: 1 / Серии 1-9 из 9 (Эрнесто Контрерас / Ernesto Contreras, Хосе Мануэль Кравиотто / José Manuel Cravioto) [2017, США, Драма, криминал, биография, WEBRip 720p] MVO [NewStudio] pb.wtf

Эль Чапо через торрент pb.wtf

Размер: 9.88 GB | Добавлен: 2 года 6 мес. назад | Торрент скачан:131 раз
Скачать  

17-06-2017 02:05 Эль Чапо Скачать торрент  

Эль Чапо / El Chapo


  • Год выпуска: 2017
  • Жанр: Драма, криминал, биография
  • Продолжительность: 00:40:54 (Серия)
  • Перевод: Профессиональный многоголосый
  • Субтитры: русские (Forced),
  • Режиссер: Эрнесто Контрерас / Ernesto Contreras, Хосе Мануэль Кравиотто / José Manuel Cravioto
  • В ролях:

    Умберто Бусто (Don Sol), Марко Де Ла О (Joaquin «El Chapo» Guzman), David Ojalvo (Jefe DEA), Алехандро Агиляр (Tono)


  • История жизни известного наркобарона Эль Чапо с момента начала его карьеры в в 1980, когда он начал работать на картель Гвадалахары, который долгое время скрывался от правосудия. В сериале «Эль Чапо» рассказывается о жизни известного преступника, который много лет избегал наказания, потом был пойман и сумел сбежать из тюрьмы. Наркобарону предъявляли обвинения по многочисленным статьям уголовного кодекса, в том числе он проходил подозреваемым по делам об убийстве и похищении людей.
  • Рейтинг:



  • Качество: WEBRip 720p
  • Формат: :MKV
  • Видео кодек: AVC
  • Аудио кодек: AC3
  • Видео: 1280x674 (1.899), 2974 kbps, 23,976 fps, 0,144 bpp
  • Аудио №1: Русский / 5.1 / 48 kHz / 384 kbps |[NewStudio]|
  • Аудио №2: Испанский / 5.1 / 48 kHz / 384 kbps

    Внимание! Раздача ведётся путём добавления новых серий; при каждом добавлении создаётся новый торрент. Чтобы начать докачку новой серии, пользователям необходимо сделать следующее:
    (1) остановить скачивание,
    (2) удалить старый торрент у себя из клиента (старые серии удалять не надо),
    (3) скачать новый торрент и запустить его у себя в клиенте вместо старого, при этом указать клиенту путь в старую папку куда и должно происходить скачивание новых серий.
    Ваш клиент при этом должен произвести хеширование (проверку) старой папки (если не производит сам - помогите ему сделать это), и будет докачивать только те серии которых у вас ещё нет. Старые серии при этом не удаляются, а продолжают раздаваться!
    Eсли вы уже удалили старые серии, то предотвратить повторную закачку старых серий можно, отжав галочку в соответствующих местах при запуске нового торрента. По возможности, желательно не удалять старые серии как можно дольше чтобы релизёр не столько продолжал раздавать старые серии, а смог сконцентрироваться на новых.

    General
    Unique ID : 214533515367270331438123192589490486827 (0xA165A6F2203D0C7884FA0C9A4B827E2B)
    Complete name : F:\Эль Чапо (El Chapo)\El.Chapo.s01e04.WEB.720p.NewStudio.TV.mkv
    Format : Matroska
    Format version : Version 4 / Version 2
    File size : 1.07 GiB
    Duration : 40 min
    Overall bit rate : 3 744 kb/s
    Encoded date : UTC 2017-06-16 23:11:54
    Writing application : mkvmerge v8.2.0 ('World of Adventure') 32bit
    Writing library : libebml v1.3.1 + libmatroska v1.4.2

    Video
    ID : 1
    Format : AVC
    Format/Info : Advanced Video Codec
    Format profile : High@L4.1
    Format settings, CABAC : Yes
    Format settings, ReFrames : 5 frames
    Codec ID : V_MPEG4/ISO/AVC
    Duration : 40 min
    Bit rate : 2 975 kb/s
    Width : 1 280 pixels
    Height : 674 pixels
    Display aspect ratio : 1.899
    Frame rate mode : Constant
    Frame rate : 23.976 (24000/1001) FPS
    Color space : YUV
    Chroma subsampling : 4:2:0
    Bit depth : 8 bits
    Scan type : Progressive
    Bits/(Pixel*Frame) : 0.144
    Stream size : 870 MiB (79%)
    Writing library : x264 core 150 r2833 df79067
    Encoding settings : cabac=1 / ref=5 / deblock=1:-3:-3 / analyse=0x3:0x113 / me=umh / subme=8 / psy=1 / psy_rd=1.00:0.15 / mixed_ref=1 / me_range=16 / chroma_me=1 / trellis=2 / 8x8dct=1 / cqm=0 / deadzone=21,11 / fast_pskip=0 / chroma_qp_offset=-2 / threads=12 / lookahead_threads=2 / sliced_threads=0 / nr=0 / decimate=1 / interlaced=0 / bluray_compat=0 / constrained_intra=0 / bframes=3 / b_pyramid=2 / b_adapt=1 / b_bias=0 / direct=3 / weightb=1 / open_gop=0 / weightp=2 / keyint=240 / keyint_min=23 / scenecut=40 / intra_refresh=0 / rc_lookahead=50 / rc=crf / mbtree=1 / crf=18.0 / qcomp=0.60 / qpmin=0 / qpmax=69 / qpstep=4 / ip_ratio=1.40 / aq=3:0.80
    Language : English
    Default : Yes
    Forced : No

    Audio #1
    ID : 2
    Format : AC-3
    Format/Info : Audio Coding 3
    Mode extension : CM (complete main)
    Format settings, Endianness : Big
    Codec ID : A_AC3
    Duration : 40 min
    Bit rate mode : Constant
    Bit rate : 384 kb/s
    Channel(s) : 6 channels
    Channel positions : Front: L C R, Side: L R, LFE
    Sampling rate : 48.0 kHz
    Frame rate : 31.250 FPS (1536 spf)
    Compression mode : Lossy
    Stream size : 112 MiB (10%)
    Title : NewStudio.TV
    Language : Russian
    Default : Yes
    Forced : No

    Audio #2
    ID : 3
    Format : AC-3
    Format/Info : Audio Coding 3
    Mode extension : CM (complete main)
    Format settings, Endianness : Big
    Codec ID : A_AC3
    Duration : 40 min
    Bit rate mode : Constant
    Bit rate : 384 kb/s
    Channel(s) : 6 channels
    Channel positions : Front: L C R, Side: L R, LFE
    Sampling rate : 48.0 kHz
    Frame rate : 31.250 FPS (1536 spf)
    Compression mode : Lossy
    Stream size : 112 MiB (10%)
    Language : Spanish
    Default : No
    Forced : No

    Text
    ID : 4
    Format : ASS
    Codec ID : S_TEXT/ASS
    Codec ID/Info : Advanced Sub Station Alpha
    Duration : 38 min
    Bit rate : 0 b/s
    Count of elements : 3
    Compression mode : Lossless
    Stream size : 291 Bytes (0%)
    Title : Forced
    Language : Russian
    Default : Yes
    Forced : No





    Скриншоты:
    скриншот   скриншот   скриншот   скриншот   скриншот   скриншот   скриншот  
    скриншот  

    Раздача ведётся путём добавления новых серий. Добавлена 5-9 серия (27.06.2017).Просьба перекачать торрент файл.

    pb.wtf



  • Скачать Эль Чапо через торрент http://i94.fastpic.ru/big/2017/0617/74/30b47774f22d2b412c206ddd6975e474.jpeg Скачать фильм Эль Чапо через торрент бесплантно в хорошем качестве qw.png История жизни известного наркобарона Эль Чапо с момента начала его карьеры в в 1980, когда он начал работать на картель ... 9.9 10 10
    Info! Золотая раздача, скачанное не засчитывается.
    Торрент: Зарегистрирован [2017-06-27 01:17] · скачан: 131 раз
    Статус: √ проверено
    Размер: 9.88 GB
    Как cкачать? Как скачать Эль Чапо через торрент | qTorrent

    % Раздел Тема Автор DL S | L
    Зарубежные сериалы [ 13.61 GB ] Эль Чапо / El Chapo / Сезон: 1 / Серии 1-9 из 9 [2017 WEBRip 720p] [MVO] killermax2013 Скачать
    2 | 0
    Зарубежные сериалы [ 5.18 GB ] Эль Чапо / El Chapo / Сезон: 1 / Серии 1-9 из 9 [2017 биография WEBRip] [MVO] [NewStudio] killermax2013 Скачать
    1 | 0

    28-11-2019 20:33  

    Отключить всю рекламу на сайте

    04-07-2017 05:14 Эль Чапо Скачать торрент  

    Смотрю уже 4-ю серию не отрываясь. Кому понравились Narcos - обязательно к просмотру!pb.wtf



      Дорогой пользователь! Огромная просьба, поблагодарите релизера, оцените раздачу и оставьте свои комментарий, если Вы скачали Эль Чапо через торрент бесплатно! Внесите свою лепту в развитие PiratBit!
      Комментировать посты могут только пользователи прошедшие не сложную регистрацию
      Показать сообщения:    

      Эль Чапо через торрент
      Скачать бесплатно Эль Чапо
      Эль Чапо скачать торрент
      Эль Чапо смотреть онлайн
      Cкачать фильм Эль Чапо бесплатно
      Эль Чапо скачать торрент в хорошем качестве
      Эль Чапо смотреть онлайн бесплатно в хорошем качестве


      Вы не можете начинать темы
      Вы не можете отвечать на сообщения
      Вы не можете редактировать свои сообщения
      Вы не можете удалять свои сообщения
      Вы не можете голосовать в опросах
      Вы не можете прикреплять файлы к сообщениям
      Вы можете скачивать файлы