новый адрес
Ссылка на приватное зеркало всего за 1$. Внимание количество ограничено!!!

iTunes

1+1

iTunes

мы

iTunes

1

iTunes

Чернобыль

iTunes

Ральф против интернета

Лицензия

ПШазам

Лицензия

Оно 2

Лицензия

30
pack

Вам бонус

ВАЖНО

!!Акция!!

Alien_RageХит недели

RePack

Resident Evil 21

ИГРА 18+

pack

RePack

jed

!!Акция!!

Alien_Rage

RePack

fifa19

RePack

Assassins Creed: Odyssey

RePack

NEED FOR SPEED™ PAYBACK

3 сезон

9 сезон

Бесстыжие 9 сезон

Все сериалы

все сериалы на PB.wtf

RePack

FAR CRY 5
Ребята, катастрофически не хватает 1900р. для оплаты серверов за Октябрь (всвязи с блокировками трафик упал в 3 раза), 1-2р., выручайте.
  

Мы продолжаем / We Go On (Джесси Холлэнд, Энди Миттон) [2016, ужасы, триллер, драма, HDRip-AVC] VO [Xixidok] pb.wtf

Мы продолжаем через торрент pb.wtf

Размер: 743 MB | Добавлен: 2 года 5 мес. назад | Торрент скачан:151 раз
Скачать  

18-06-2017 08:28 Мы продолжаем Скачать торрент  

Мы продолжаем / We Go On
Год выпуска: 2016
Страна: США
Жанр: ужасы, триллер, драма
Продолжительность: 01:29:07
Перевод: Любительский одноголосый [Xixidok]
Субтитры: отсутствуют

Режиссер: Джесси Холлэнд, Энди Миттон

rating

В ролях:

Дэвид Бикфорд, Джастин Карпентер, Кэссиди Фриман, Кларк Фриман, Эдвин Гарсиа II, Джон Гловер, Лаура Хейслер, Клем Джеффрис, Терри Кэй, Логан Киши, Питер Лукас, Мэтт МакЛеод

Описание:

Майлз Гриссом до ужаса боится смерти. Он предлагает денежное вознаграждение любому, кто докажет ему существование загробной жизни — покажет привидение, ангела, демона или чёрта в ступе. Парень решает встретиться с тремя претендентами на награду — учёным, медиумом и предпринимателем, и в сопровождении чрезвычайно заботливой мамы он пускается в необычное путешествие по Лос-Анджелесу.

Качество: HDRip-AVC
Формат: MKV
Видео кодек: H.264
Аудио кодек: AAC

Видео: High@L4.1; 768x432; 1103 Кбит/сек; 23,976 кадров/сек; 0.139
Аудио#1: HE-AAC / LC; 48,0 КГц / 24,0 КГц; 64,0 Кбит/сек; 2 канала

скриншот   скриншот   скриншот   скриншот  

скриншот   скриншот   скриншот   скриншот  

Общее
Уникальный идентификатор : 178921653256483142274095884956598979998 (0x869B0E959FF224FC8BDB76C4D22ACD9E)
Полное имя : D:\Мы продолжаем (2016) HDRip L1.mkv
Формат : Matroska
Версия формата : Version 4 / Version 2
Размер файла : 743 Мбайт
Продолжительность : 1 ч. 29 м.
Общий поток : 1165 Кбит/сек
Дата кодирования : UTC 2017-06-17 16:35:26
Программа кодирования : mkvmerge v9.8.0 ('Kuglblids') 64bit
Библиотека кодирования : libebml v1.3.4 + libmatroska v1.4.5

Видео
Идентификатор : 1
Формат : AVC
Формат/Информация : Advanced Video Codec
Профиль формата : High@L4.1
Параметр CABAC формата : Да
Параметр ReFrames формата : 16 кадров
Идентификатор кодека : V_MPEG4/ISO/AVC
Продолжительность : 1 ч. 29 м.
Битрейт : 1103 Кбит/сек
Ширина : 768 пикселей
Высота : 432 пикселя
Соотношение сторон : 16:9
Режим частоты кадров : Постоянный
Частота кадров : 23,976 (24000/1001) кадра/сек
Цветовое пространство : YUV
Субдискретизация насыщенности : 4:2:0
Битовая глубина : 8 бит
Тип развёртки : Прогрессивная
Бит/(Пиксели*Кадры) : 0.139
Размер потока : 701 Мбайт (94%)
Библиотека кодирования : x264 core 150 r2833 df79067
Настройки программы : cabac=1 / ref=16 / deblock=1:-1:-1 / analyse=0x3:0x133 / me=umh / subme=10 / psy=1 / psy_rd=1.00:0.15 / mixed_ref=1 / me_range=24 / chroma_me=1 / trellis=2 / 8x8dct=1 / cqm=0 / deadzone=21,11 / fast_pskip=1 / chroma_qp_offset=-3 / threads=6 / lookahead_threads=1 / sliced_threads=0 / nr=0 / decimate=1 / interlaced=0 / bluray_compat=0 / constrained_intra=0 / bframes=8 / b_pyramid=2 / b_adapt=2 / b_bias=0 / direct=3 / weightb=1 / open_gop=0 / weightp=2 / keyint=240 / keyint_min=23 / scenecut=40 / intra_refresh=0 / rc_lookahead=60 / rc=2pass / mbtree=0 / bitrate=1103 / ratetol=1.0 / qcomp=0.60 / qpmin=0 / qpmax=69 / qpstep=4 / cplxblur=20.0 / qblur=0.5 / vbv_maxrate=50000 / vbv_bufsize=62500 / nal_hrd=none / filler=0 / ip_ratio=1.40 / pb_ratio=1.30 / aq=1:1.00
Default : Да
Forced : Нет

Аудио
Идентификатор : 2
Формат : AAC
Формат/Информация : Advanced Audio Codec
Профиль формата : HE-AAC / LC
Идентификатор кодека : A_AAC
Продолжительность : 1 ч. 29 м.
Битрейт : 64,0 Кбит/сек
Каналы : 2 канала
Расположение каналов : Front: L R
Частота : 48,0 КГц / 24,0 КГц
Частота кадров : 23,438 кадра/сек (1024 spf)
Метод сжатия : С потерями
Задержка видео : 31 мс.
Размер потока : 40,8 Мбайт (5%)
Заголовок : L1 (xixidok)
Язык : Russian
Default : Да
Forced : Нет

Меню
00:00:00.000 : en:00:00:00.000
00:05:32.040 : en:00:05:32.040
00:11:23.850 : en:00:11:23.850
00:26:17.034 : en:00:26:17.034
00:31:50.742 : en:00:31:50.742
00:39:07.845 : en:00:39:07.845
00:47:57.416 : en:00:47:57.416
00:56:05.487 : en:00:56:05.487
01:07:08.316 : en:01:07:08.316
01:18:47.181 : en:01:18:47.181
01:24:35.696 : en:01:24:35.696

pb.wtf



Скачать Мы продолжаем через торрент http://s019.radikal.ru/i633/1706/bf/b10ee8109597.jpg Скачать фильм Мы продолжаем через торрент бесплантно в хорошем качестве Описание: Майлз Гриссом до ужаса боится смерти. Он предлагает денежное вознаграждение любому, кто докажет ему существование загробной жизни ... 10 10 6
Торрент: Зарегистрирован [2017-06-18 08:28] · скачан: 151 раз
Статус: T временная
Размер: 743 MB
Как cкачать? Как скачать Мы продолжаем через торрент | qTorrent

% Раздел Тема Автор DL S | L
Фильмы без перевода [ 24.05 GB ] Мы продолжаем / We Go On [2016 BD Remux] [Оригинал-ENG] smaster Скачать
1 | 0
T Фильмы 2016 [DVDrip, WEB-DLRip, HDrip] (DUB, MVO) [ 1.36 GB ] Мы продолжаем / We Go On [2016 WEB-DLRip Любительский ] oleg8 Скачать
1 | 0


>> Регистрируемся здесь <<






Отзывы и комментарии о схеме читаем и пишем здесь: ---> Отзывы и комментарии о схеме

Новые благодарочки в телеграм довольных пользователей:
скриншот   скриншот   скриншот   скриншот   скриншот

18-06-2017 16:15 Мы продолжаем Скачать торрент  

на разок с пивком. потянет)pb.wtf



18-06-2017 20:04 Мы продолжаем Скачать торрент  

а он упрямый это пугает pb.wtf



    Дорогой пользователь! Огромная просьба, поблагодарите релизера, оцените раздачу и оставьте свои комментарий, если Вы скачали Мы продолжаем через торрент бесплатно! Внесите свою лепту в развитие PiratBit!
    Комментировать посты могут только пользователи прошедшие не сложную регистрацию
    Показать сообщения:    

    Мы продолжаем через торрент
    Скачать бесплатно Мы продолжаем
    Мы продолжаем скачать торрент
    Мы продолжаем смотреть онлайн
    Cкачать фильм Мы продолжаем бесплатно
    Мы продолжаем скачать торрент в хорошем качестве
    Мы продолжаем смотреть онлайн бесплатно в хорошем качестве


    Вы не можете начинать темы
    Вы не можете отвечать на сообщения
    Вы не можете редактировать свои сообщения
    Вы не можете удалять свои сообщения
    Вы не можете голосовать в опросах
    Вы не можете прикреплять файлы к сообщениям
    Вы можете скачивать файлы