Ссылка на приватное зеркало нашего сайта всего за 1$. Внимание количество ограничено!!!

2 сезон

iTunes

1 сезон

1

iTunes

iTunes

iTunes

1 сезон

RePack

30

ИГРА 18+

pack

ВАЖНО

!!Акция!!

Alien_RageХит недели

RePack

MK11
pack

Забери бонус

RePack

jed

!!Акция!!

Alien_Rage

RePack

fifa19

RePack

Assassins Creed: Odyssey

RePack

NEED FOR SPEED™ PAYBACK

4 сезон

9 сезон

Бесстыжие 9 сезон

Все сериалы

все сериалы на PB.wtf

RePack

FAR CRY 5
  

Там, где течёт река / A River Runs Through It (Роберт Редфорд) [1992, драма, BDRip 1080p by msltel] DVO, 2 x AVO pb.wtf

Там, где течёт река через торрент pb.wtf

Размер: 19.74 GB | Добавлен: 3 года 4 мес. назад | Торрент скачан:18 раз
Скачать  

18-06-2017 08:29 Там, где течёт река Скачать торрент  

Название: Там, где течёт река
Оригинальное название: A River Runs Through It
Год выпуска: 1992
Страна: США
Жанр: драма
Продолжительность: 02:03:57
Перевод: профессиональный двухголосый, авторский

Режиссёр: Роберт Редфорд

В ролях: Брэд Питт, Крэйг Шеффер, Том Скерритт, Бренда Блетин, Эмили Ллойд, Эди МакКлёрг, Стивен Шеллен, Вэнн Грэвидж, Николь Бёрдетт, Сьюзен Трейлор, Майкл Кадлитц, Роб Кокс, Бак Симмондс, Фред Оукленд, Дэвид Кример, Мадонна Рубенс, Джон Рубенс, Арнольд Ричардсон, МакИнтайр Диксон, Уильям Хуткинс, Эл Ричардсон, Джесс Швидди

Описание: Действие фильма происходит в величественных горах Монтаны в начале XX века в маленьком городке на реке Биг Блэкфут. Двое братьев Норман и Пол растут в строгой семье пресвитерианского священника. Утром они зубрят в школе библейские заповеди, а днём отдаются своему увлечению — рыбалке. Проходят годы. Пол становится репортёром местной газеты, Норман — преподавателем литературы. У братьев совершенно разный характер. Норман спокойный и уравновешенный человек, живущий по заведённому порядку. У Пола необузданный и непредсказуемый нрав, и время он предпочитает проводить в кутежах и пьянках. Тем не менее, их объединяет одна детская страсть к ловле рыбы на "мушку"... Экранизация одноимённого рассказа Нормана Маклина.



Качество: BDRip 1080p
Формат: MKV
Видео: MPEG-4 AVC, 18.1 Mбит/с, 1920x1036
Аудио 1: русский, DTS, 1509 kbps, 6 ch, 48 kHz [профессиональный двухголосый, R5]
Аудио 2: русский, DTS, 1509 kbps, 6 ch, 48 kHz [авторский, Сергей Визгунов]
Аудио 3: русский, AC3, 192 kbps, 2 ch, 48 kHz [авторский, Алексей Михалёв, VHS]
Аудио 4: английский, DTS, 1509 kbps, 6 ch, 48 kHz [оригинал]
Субтитры 1: русские
Субтитры 2: английские
Имеются неименованные главы/чаптеры.
Общее
Уникальный идентификатор : 198543789414957493228671998336516719769 (0x955E24971A2FDF15971BA35B55EB8499)
Полное имя : D:\Video\Там, где течёт река.1992.BDRip.1080p by msltel.mkv
Формат : Matroska
Версия формата : Version 4 / Version 2
Размер файла : 19,7 Гбайт
Продолжительность : 2 ч. 3 м.
Общий поток : 22,8 Мбит/сек
Название фильма : Rip by msltel
Дата кодирования : UTC 2017-06-18 04:48:59
Программа кодирования : mkvmerge v8.2.0 ('World of Adventure') 64bit
Библиотека кодирования : libebml v1.3.1 + libmatroska v1.4.2

Видео
Идентификатор : 1
Формат : AVC
Формат/Информация : Advanced Video Codec
Профиль формата : High@L4.1
Параметр CABAC формата : Да
Параметр ReFrames формата : 4 кадра
Идентификатор кодека : V_MPEG4/ISO/AVC
Продолжительность : 2 ч. 3 м.
Битрейт : 18,1 Мбит/сек
Ширина : 1920 пикселей
Высота : 1036 пикселей
Соотношение сторон : 1,85:1
Режим частоты кадров : Постоянный
Частота кадров : 23,976 (24000/1001) кадра/сек
Цветовое пространство : YUV
Субдискретизация насыщенности : 4:2:0
Битовая глубина : 8 бит
Тип развёртки : Прогрессивная
Бит/(Пиксели*Кадры) : 0.379
Размер потока : 15,7 Гбайт (79%)
Библиотека кодирования : x264 core 146 r2538 121396c
Настройки программы : cabac=1 / ref=4 / deblock=1:-3:-2 / analyse=0x3:0x113 / me=umh / subme=11 / psy=1 / psy_rd=1.00:0.15 / mixed_ref=1 / me_range=32 / chroma_me=1 / trellis=2 / 8x8dct=1 / cqm=0 / deadzone=21,11 / fast_pskip=0 / chroma_qp_offset=-3 / threads=6 / lookahead_threads=1 / sliced_threads=0 / nr=0 / decimate=1 / interlaced=0 / bluray_compat=0 / constrained_intra=0 / bframes=10 / b_pyramid=2 / b_adapt=2 / b_bias=0 / direct=1 / weightb=1 / open_gop=0 / weightp=2 / keyint=230 / keyint_min=23 / scenecut=40 / intra_refresh=0 / rc_lookahead=40 / rc=crf / mbtree=0 / crf=21.5 / qcomp=0.60 / qpmin=0 / qpmax=69 / qpstep=4 / vbv_maxrate=62500 / vbv_bufsize=78125 / crf_max=0.0 / nal_hrd=none / filler=0 / ip_ratio=1.40 / pb_ratio=1.30 / aq=1:1.00
Язык : English
Default : Да
Forced : Нет

Аудио #1
Идентификатор : 2
Формат : DTS
Формат/Информация : Digital Theater Systems
Режим : 16
Параметр Endianness формата : Big
Идентификатор кодека : A_DTS
Продолжительность : 2 ч. 3 м.
Вид битрейта : Постоянный
Битрейт : 1509 Кбит/сек
Каналы : 6 каналов
Расположение каналов : Front: L C R, Side: L R, LFE
Частота : 48,0 КГц
Частота кадров : 93,750 кадра/сек (512 spf)
Битовая глубина : 24 бит
Метод сжатия : С потерями
Размер потока : 1,31 Гбайт (7%)
Заголовок : DVO (R5)
Язык : Russian
Default : Да
Forced : Нет

Аудио #2
Идентификатор : 3
Формат : DTS
Формат/Информация : Digital Theater Systems
Режим : 16
Параметр Endianness формата : Big
Идентификатор кодека : A_DTS
Продолжительность : 2 ч. 3 м.
Вид битрейта : Постоянный
Битрейт : 1509 Кбит/сек
Каналы : 6 каналов
Расположение каналов : Front: L C R, Side: L R, LFE
Частота : 48,0 КГц
Частота кадров : 93,750 кадра/сек (512 spf)
Битовая глубина : 24 бит
Метод сжатия : С потерями
Размер потока : 1,31 Гбайт (7%)
Заголовок : AVO (Сергей Визгунов)
Язык : Russian
Default : Нет
Forced : Нет

Аудио #3
Идентификатор : 4
Формат : AC-3
Формат/Информация : Audio Coding 3
Параметр Endianness формата : Big
Идентификатор кодека : A_AC3
Продолжительность : 2 ч. 3 м.
Вид битрейта : Постоянный
Битрейт : 192 Кбит/сек
Каналы : 2 канала
Расположение каналов : Front: L R
Частота : 48,0 КГц
Частота кадров : 31,250 кадров/сек (1536 spf)
Битовая глубина : 16 бит
Метод сжатия : С потерями
Размер потока : 170 Мбайт (1%)
Заголовок : AVO (Алексей Михалёв, VHS)
Язык : Russian
ServiceKind/String : Complete Main
Default : Нет
Forced : Нет

Аудио #4
Идентификатор : 5
Формат : DTS
Формат/Информация : Digital Theater Systems
Режим : 16
Параметр Endianness формата : Big
Идентификатор кодека : A_DTS
Продолжительность : 2 ч. 3 м.
Вид битрейта : Постоянный
Битрейт : 1509 Кбит/сек
Каналы : 6 каналов
Расположение каналов : Front: L C R, Side: L R, LFE
Частота : 48,0 КГц
Частота кадров : 93,750 кадра/сек (512 spf)
Битовая глубина : 24 бит
Метод сжатия : С потерями
Размер потока : 1,31 Гбайт (7%)
Заголовок : original
Язык : English
Default : Нет
Forced : Нет

Текст #1
Идентификатор : 6
Формат : UTF-8
Идентификатор кодека : S_TEXT/UTF8
Идентификатор кодека/Информация : UTF-8 Plain Text
Продолжительность : 1 ч. 58 м.
Битрейт : 63 бит/сек
ElementCount : 1028
Размер потока : 55,3 Кбайт (0%)
Заголовок : русские
Язык : Russian
Default : Нет
Forced : Нет

Текст #2
Идентификатор : 7
Формат : UTF-8
Идентификатор кодека : S_TEXT/UTF8
Идентификатор кодека/Информация : UTF-8 Plain Text
Продолжительность : 1 ч. 58 м.
Битрейт : 48 бит/сек
ElementCount : 1032
Размер потока : 42,1 Кбайт (0%)
Заголовок : английские
Язык : English
Default : Нет
Forced : Нет

Меню
00:00:00.000 : :Chapter 01
00:13:40.945 : :Chapter 02
00:27:46.914 : :Chapter 03
00:36:21.761 : :Chapter 04
00:42:08.567 : :Chapter 05
00:56:22.586 : :Chapter 06
01:03:31.641 : :Chapter 07
01:12:48.529 : :Chapter 08
01:27:54.100 : :Chapter 09
01:40:38.198 : :Chapter 10
01:52:43.422 : :Chapter 11
01:59:48.471 : :Chapter 12
02:03:57.220 : :Chapter 13
pb.wtf



Скачать Там, где течёт река через торрент http://s002.radikal.ru/i198/1706/31/6c92204fa82e.jpg Скачать фильм Там, где течёт река через торрент бесплантно в хорошем качестве Описание: Действие фильма происходит в величественных горах Монтаны в начале XX века в маленьком городке на реке Биг Блэкфут. Двое братьев ... 9.8 10 4
Info! Золотая раздача, скачанное не засчитывается.
Торрент: Зарегистрирован [2017-06-18 08:29] · скачан: 18 раз
Статус: √ проверено
Размер: 19.74 GB
Как cкачать? Как скачать Там, где течёт река через торрент | qTorrent

% Раздел Тема Автор DL S | L
Фильмы [HD 720p, 1080p] (Хороший звук DUB, MVO) [ 6.98 GB ] Там где течёт река / A River Runs Through It [1992 BDRip 720p by msltel] DVO 2 x AVO msltel Скачать
1 | 0

28-11-2019 20:33  

Отключить всю рекламу на сайте

    Дорогой пользователь! Огромная просьба, поблагодарите релизера, оцените раздачу и оставьте свои комментарий, если Вы скачали Там, где течёт река через торрент бесплатно! Внесите свою лепту в развитие PiratBit!
    Комментировать посты могут только пользователи прошедшие не сложную регистрацию
    Показать сообщения:    

    Там, где течёт река через торрент
    Скачать бесплатно Там, где течёт река
    Там, где течёт река скачать торрент
    Там, где течёт река смотреть онлайн
    Cкачать фильм Там, где течёт река бесплатно
    Там, где течёт река скачать торрент в хорошем качестве
    Там, где течёт река смотреть онлайн бесплатно в хорошем качестве


    Вы не можете начинать темы
    Вы не можете отвечать на сообщения
    Вы не можете редактировать свои сообщения
    Вы не можете удалять свои сообщения
    Вы не можете голосовать в опросах
    Вы не можете прикреплять файлы к сообщениям
    Вы можете скачивать файлы