Ссылка на приватное зеркало нашего сайта всего за 1$. Внимание количество ограничено!!!

2 сезон

iTunes

1 сезон

1

iTunes

iTunes

iTunes

1 сезон

RePack

30

ИГРА 18+

pack

ВАЖНО

!!Акция!!

Alien_RageХит недели

RePack

MK11
pack

Забери бонус

RePack

jed

!!Акция!!

Alien_Rage

RePack

fifa19

RePack

Assassins Creed: Odyssey

RePack

NEED FOR SPEED™ PAYBACK

4 сезон

9 сезон

Бесстыжие 9 сезон

Все сериалы

все сериалы на PB.wtf

RePack

FAR CRY 5
  

Лови волну 2 / Surf's Up 2: WaveMania (Генри Ю) [2017, мультфильм, комедия, семейный, WEB-DLRip] Дубляж - [Лицензия / iTunes] pb.wtf

Лови волну 2 через торрент pb.wtf

Размер: 1.46 GB | Добавлен: 3 года 4 мес. назад | Торрент скачан:422 раза
Скачать  

18-06-2017 17:58 Лови волну 2 Скачать торрент  

Лови волну 2 / Surf's Up 2: WaveMania

Год выпуска: 2017
Страна: США
Жанр: мультфильм, комедия, семейный, спорт
Продолжительность: 01:24:01
Перевод: Дубляж - [Лицензия / iTunes]
Субтитры: Русские форсированные (отдельно)
Режиссер: Генри Ю
В ролях:

Джереми Шэда (Cody Maverick, озвучка), Мелисса Штурм (Lani Aliikai, озвучка), Дидрих Бадер (Tank «The Shredder» Evans, озвучка), Сарая-Джейд Бевис (Paige, озвучка), Марк Колэуэй (Undertaker, озвучка), Деклан Картер (Arnold / Surf School Student, озвучка), Джон Сина (J.C., озвучка), Майкл Коул (Seagull, озвучка), Джон Хидер (Chicken Joe, озвучка), Пол Левески (Hunter, озвучка), Зои Лулу (Kate / Surf School Student, озвучка), Винс МакМэон (Mr. McMahon, озвучка)
Описание:
История о целеустремленном пингвине-серфингисте Коди Маверике. Вместе с бесславной командой он отправляется на поиски таинственного побережья, где, по легенде, бушуют самые крутые волны в мире. Но способны ли они затмить всё то, что оставил Коди ради них?
Рейтинг:

MPAA: PG - Рекомендуется присутствие родителей
Качество: WEB-DLRip
Формат: AVI
Видео: XviD, 688x384 (16:9), 1997 kbps, 23,976 fps, 0,315 bpp
Аудио: AC3 / 5.1 / 48 kHz / 384 kbps /
Релиз от: MegaPeer
General
Complete name : E:\Surf.s.Up.2.WaveMania.2017.WEB-DLRip.1.46Gb.MegaPeer\Surf.s.Up.2.WaveMania.2017.WEB-DLRip.1.46Gb.MegaPeer.avi
Format : AVI
Format/Info : Audio Video Interleave
File size : 1.46 GiB
Duration : 1 h 24 min
Overall bit rate : 2 489 kb/s

Video
ID : 0
Format : MPEG-4 Visual
Format profile : Advanced Simple@L5
Format settings, BVOP : Yes
Format settings, QPel : No
Format settings, GMC : No warppoints
Format settings, Matrix : Custom
Codec ID : XVID
Codec ID/Hint : XviD
Duration : 1 h 24 min
Bit rate : 1 997 kb/s
Width : 688 pixels
Height : 384 pixels
Display aspect ratio : 16:9
Frame rate : 23.976 (24000/1001) FPS
Color space : YUV
Chroma subsampling : 4:2:0
Bit depth : 8 bits
Scan type : Progressive
Compression mode : Lossy
Bits/(Pixel*Frame) : 0.315
Stream size : 1.17 GiB (80%)
Writing library : XviD 73

Audio
ID : 1
Format : AC-3
Format/Info : Audio Coding 3
Mode extension : CM (complete main)
Format settings, Endianness : Big
Codec ID : 2000
Duration : 1 h 24 min
Bit rate mode : Constant
Bit rate : 384 kb/s
Channel(s) : 6 channels
Channel positions : Front: L C R, Side: L R, LFE
Sampling rate : 48.0 kHz
Frame rate : 31.250 FPS (1536 spf)
Compression mode : Lossy
Stream size : 231 MiB (15%)
Alignment : Aligned on interleaves
Title : iTunes
pb.wtf
K-Lexx- писал(а):

Залито по заказу.



Скачать Лови волну 2 через торрент http://i2.imageban.ru/out/2017/06/18/f3d75cfde674c3688b64ff3da61a0949.jpg Скачать фильм Лови волну 2 через торрент бесплантно в хорошем качестве Описание: История о целеустремленном пингвине-серфингисте Коди Маверике. Вместе с бесславной командой он отправляется на поиски ... 10 10 9
Торрент: Зарегистрирован [2017-06-18 17:58] · скачан: 422 раз
Статус: √ проверено
Размер: 1.46 GB
Как cкачать? Как скачать Лови волну 2 через торрент | qTorrent

28-11-2019 20:33  

Отключить всю рекламу на сайте

18-06-2017 19:58 Лови волну 2 Скачать торрент  

нее , не смотрибельно pb.wtf



27-06-2017 08:11 Лови волну 2 Скачать торрент  

Скачал из уважения к первой части. Смотрел на перемотке. Не стоит удивляться - последующие части всегда хуже первой, например взять последний ледниковый период - даже на перемотке смотреть было до тошноты невозможно. Релизеру большое спасибо!!!pb.wtf



    Дорогой пользователь! Огромная просьба, поблагодарите релизера, оцените раздачу и оставьте свои комментарий, если Вы скачали Лови волну 2 через торрент бесплатно! Внесите свою лепту в развитие PiratBit!
    Комментировать посты могут только пользователи прошедшие не сложную регистрацию
    Показать сообщения:    

    Лови волну 2 через торрент
    Скачать бесплатно Лови волну 2
    Лови волну 2 скачать торрент
    Лови волну 2 смотреть онлайн
    Cкачать фильм Лови волну 2 бесплатно
    Лови волну 2 скачать торрент в хорошем качестве
    Лови волну 2 смотреть онлайн бесплатно в хорошем качестве


    Вы не можете начинать темы
    Вы не можете отвечать на сообщения
    Вы не можете редактировать свои сообщения
    Вы не можете удалять свои сообщения
    Вы не можете голосовать в опросах
    Вы не можете прикреплять файлы к сообщениям
    Вы можете скачивать файлы