Ссылка на приватное зеркало всего за 1$. Внимание количество ограничено!!!

OK

1+1

iTunes

мы

OK

1

WEB-DLRip

Джокер

Пифагор

Ведьмак / The Witcher сериал

Лицензия

ПШазам

ОК

Оно 2

iTunes

30
pack

Вам бонус

ВАЖНО

!!Акция!!

Alien_RageХит недели

RePack

Resident Evil 21

ИГРА 18+

pack

RePack

jed

!!Акция!!

Alien_Rage

RePack

fifa19

RePack

Assassins Creed: Odyssey

RePack

NEED FOR SPEED™ PAYBACK

4 сезон

9 сезон

Бесстыжие 9 сезон

Все сериалы

все сериалы на PB.wtf

RePack

FAR CRY 5
  

Долгий поцелуй на ночь / The Long Kiss Goodnight (Ренни Харлин) [1996 г., боевик, триллер, драма, криминал, детектив, BDRip 720p / 60 FPS, MVO ]от R.G. HD-Films pb.wtf

Долгий поцелуй на ночь через торрент pb.wtf

Размер: 4.51 GB | Добавлен: 2 года 7 мес. назад | Торрент скачан:100 раз
Скачать  

19-06-2017 13:14 Долгий поцелуй на ночь Скачать торрент  

Долгий поцелуй на ночь / The Long Kiss Goodnight
Год выпуска: 1996
Страна: США
Жанр: боевик, триллер, драма, криминал, детектив
Продолжительность: 02:00:33
Перевод: Профессиональный (многоголосый закадровый, Киномания )

Режиссер: Ренни Харлин

В ролях: Джина Дэвис, Сэмюэл Л. Джексон, Ивонн Зима, Крэйг Бирко, Брайан Кокс, Том Амандес, Патрик Мэлахайд, Дэвид Морс, Джозеф МакКенна, Мелина Канакаридис

Описание: 8 лет назад школьная учительница Саманта Кейн перенесла полную потерю памяти. Она живет с 8-летней дочкой счастливой семейной жизнью и не подозревает о своем кровавом прошлом, ведь когда-то эта красивая женщина была агентом Чарли Бэлтимор, выполнявшим секретные заказы ЦРУ.

Шокированная неожиданным возвращением некоторых навыков и психологической подготовки профессионального киллера, Саманта пытается разобраться в своем прошлом. Детектив Митч Хенесси, начавший с расследования жизни простой учительницы, оказывается втянутым вместе с Самантой в секретную операцию ЦРУ.


Качество: BDRip 720p / 60 FPS
Формат: MKV
Видео кодек: H.264
Аудио кодек: AC3
Видео: x264, 1280 x 536 (2,40:1), 4978 kbps, 60,000 fps, ( 0.121 bpp)
Аудио#1: Русский, AC-3, 48.0 KHz, 6 ch, 384 Kbps ( Многоголосый закадровый, Киномания )

скриншот   скриншот   скриншот   скриншот   скриншот  
Автор рипа: slaventi-69
Общее
Уникальный идентификатор : 221737861588902808472013560331247704358 (0xA6D128A36FCB176F8CCDAF6D566E5926)
Полное имя : E:\The.Long.Kiss.Goodnight.(1996).BDRip.720p.(60 Fps).mkv
Формат : Matroska
Версия формата : Version 4 / Version 2
Размер файла : 4,51 Гбайт
Продолжительность : 2 ч. 0 м.
Общий поток : 5366 Кбит/сек
Название фильма : Долгий поцелуй на ночь / The Long Kiss Goodnight (1996) BDRip 720p (60 Fps)
Дата кодирования : UTC 2017-06-19 10:21:53
Программа кодирования : mkvmerge v9.1.0 ('Little Earthquakes') 64bit
Библиотека кодирования : libebml v1.3.3 + libmatroska v1.4.4

Видео
Идентификатор : 1
Формат : AVC
Формат/Информация : Advanced Video Codec
Профиль формата : High@L4.1
Параметр CABAC формата : Да
Параметр ReFrames формата : 4 кадра
Идентификатор кодека : V_MPEG4/ISO/AVC
Продолжительность : 2 ч. 0 м.
Битрейт : 4978 Кбит/сек
Ширина : 1280 пикселей
Высота : 536 пикселей
Соотношение сторон : 2,40:1
Режим частоты кадров : Постоянный
Частота кадров : 60,000 кадров/сек
Цветовое пространство : YUV
Субдискретизация насыщенности : 4:2:0
Битовая глубина : 8 бит
Тип развёртки : Прогрессивная
Бит/(Пиксели*Кадры) : 0.121
Размер потока : 4,19 Гбайт (93%)
Заголовок : slaventi-69 ( R.G. HD-Films | 60 fps )
Библиотека кодирования : x264 core 146 r2538 121396c
Настройки программы : cabac=1 / ref=4 / deblock=1:0:0 / analyse=0x3:0x113 / me=umh / subme=9 / psy=1 / psy_rd=1.00:0.00 / mixed_ref=1 / me_range=24 / chroma_me=1 / trellis=2 / 8x8dct=1 / cqm=0 / deadzone=21,11 / fast_pskip=1 / chroma_qp_offset=-2 / threads=10 / lookahead_threads=1 / sliced_threads=0 / nr=0 / decimate=1 / interlaced=0 / bluray_compat=0 / constrained_intra=0 / bframes=4 / b_pyramid=2 / b_adapt=2 / b_bias=0 / direct=1 / weightb=1 / open_gop=0 / weightp=2 / keyint=250 / keyint_min=25 / scenecut=40 / intra_refresh=0 / rc_lookahead=50 / rc=crf / mbtree=1 / crf=15.5 / qcomp=0.60 / qpmin=0 / qpmax=69 / qpstep=4 / vbv_maxrate=14000 / vbv_bufsize=14000 / crf_max=0.0 / nal_hrd=none / filler=0 / ip_ratio=1.40 / aq=1:1.00
Язык : English
Default : Да
Forced : Нет

Аудио
Идентификатор : 2
Формат : AC-3
Формат/Информация : Audio Coding 3
Параметр Endianness формата : Big
Идентификатор кодека : A_AC3
Продолжительность : 2 ч. 0 м.
Вид битрейта : Постоянный
Битрейт : 384 Кбит/сек
Каналы : 6 каналов
Расположение каналов : Front: L C R, Side: L R, LFE
Частота : 48,0 КГц
Частота кадров : 31,250 кадров/сек (1536 spf)
Битовая глубина : 16 бит
Метод сжатия : С потерями
Размер потока : 331 Мбайт (7%)
Заголовок : Многоголосый, Киномания
Язык : Russian
ServiceKind/String : Complete Main
Default : Да
Forced : Нет

pb.wtf



Скачать Долгий поцелуй на ночь через торрент http://lostpic.net/orig_images/2/f/d/2fd7b6c0d622a52c9a3d0d956301ffb2.jpg Скачать фильм Долгий поцелуй на ночь через торрент бесплантно в хорошем качестве Описание: 8 лет назад школьная учительница Саманта Кейн перенесла полную потерю памяти. Она живет с 8-летней дочкой счастливой семейной ... 9.9 10 11
Info! Золотая раздача, скачанное не засчитывается.
Торрент: Зарегистрирован [2017-06-19 13:14] · скачан: 100 раз
Статус: √ проверено
Размер: 4.51 GB
Как cкачать? Как скачать Долгий поцелуй на ночь через торрент | qTorrent

28-11-2019 20:33  

Отключить всю рекламу на сайте

19-06-2017 16:21 Долгий поцелуй на ночь Скачать торрент  

Классика..pb.wtf



    Дорогой пользователь! Огромная просьба, поблагодарите релизера, оцените раздачу и оставьте свои комментарий, если Вы скачали Долгий поцелуй на ночь через торрент бесплатно! Внесите свою лепту в развитие PiratBit!
    Комментировать посты могут только пользователи прошедшие не сложную регистрацию
    Показать сообщения:    

    Долгий поцелуй на ночь через торрент
    Скачать бесплатно Долгий поцелуй на ночь
    Долгий поцелуй на ночь скачать торрент
    Долгий поцелуй на ночь смотреть онлайн
    Cкачать фильм Долгий поцелуй на ночь бесплатно
    Долгий поцелуй на ночь скачать торрент в хорошем качестве
    Долгий поцелуй на ночь смотреть онлайн бесплатно в хорошем качестве


    Вы не можете начинать темы
    Вы не можете отвечать на сообщения
    Вы не можете редактировать свои сообщения
    Вы не можете удалять свои сообщения
    Вы не можете голосовать в опросах
    Вы не можете прикреплять файлы к сообщениям
    Вы можете скачивать файлы