2 сезон

iTunes

1 сезон

1

iTunes

iTunes

iTunes

1 сезон

RePack

30

ИГРА 18+

pack

ВАЖНО

!!Акция!!

Alien_RageХит недели

RePack

MK11
pack

Забери бонус

RePack

jed

!!Акция!!

Alien_Rage

RePack

fifa19

RePack

Assassins Creed: Odyssey

RePack

NEED FOR SPEED™ PAYBACK

4 сезон

9 сезон

Бесстыжие 9 сезон

Все сериалы

все сериалы на PB.wtf

RePack

FAR CRY 5
  

Майор Соколов. Игра без правил / Серия 1 -16 из 16 (Карен Захаров) [2017 г., Драма, криминал, SATRip] pb.wtf

Майор Соколов. Игра без правил через торрент pb.wtf

Размер: 9.54 GB | Добавлен: 3 года 4 мес. назад | Торрент скачан:202 раза
Скачать  

19-06-2017 13:52 Майор Соколов. Игра без правил Скачать торрент  

Майор Соколов. Игра без правил / Серия 1 - 16 из 16
Год выпуска: 2017
Страна: Россия
Жанр: Драма, криминал
Продолжительность: 16х~00:45 :00
Субтитры: нет

Режиссер: Карен Захаров

В ролях: Константин Соловьёв, Анастасия Панина, Александр Наумов, Вадим Андреев, Филипп Бледный, Артур Ваха, Илья Бледный, Анатолий Кот, Татьяна Казючиц, Валерий Новиков, Виктор Овсянников

Описание: Продолжение истории о майоре управления собственной безопасности Владе Соколове (Константин Соловьев).

Качество: SATRip
Формат: AVI
Видео кодек: XviD
Аудио кодек: MP3
Видео: 720x400 (1.80:1), 25 fps, XviD build 50 ~1800 kbps
Аудио#1: 48 kHz, MPEG Layer 3, 2 ch, ~128.00 kbps



General
Complete name : H:\релизы.торрентфайл\Майор Соколов(2017)\Major.Sokolov.Igra.bez.pravil.01.SATRip.[www.riperam.org].avi
Format : AVI
Format/Info : Audio Video Interleave
File size : 628 MiB
Duration : 45mn 14s
Overall bit rate : 1 942 Kbps

Video
ID : 0
Format : MPEG-4 Visual
Format profile : Advanced Simple@L5
Format settings, BVOP : 2
Format settings, QPel : No
Format settings, GMC : No warppoints
Format settings, Matrix : Default (H.263)
Codec ID : XVID
Codec ID/Hint : XviD
Duration : 45mn 14s
Bit rate : 1 800 Kbps
Width : 720 pixels
Height : 400 pixels
Display aspect ratio : 16:9
Frame rate : 25.000 fps
Color space : YUV
Chroma subsampling : 4:2:0
Bit depth : 8 bits
Scan type : Progressive
Compression mode : Lossy
Bits/(Pixel*Frame) : 0.250
Stream size : 583 MiB (93%)
Writing library : XviD 1.2.1 (UTC 2008-12-04)

Audio
ID : 1
Format : MPEG Audio
Format version : Version 1
Format profile : Layer 3
Mode : Joint stereo
Mode extension : MS Stereo
Codec ID : 55
Codec ID/Hint : MP3
Duration : 45mn 14s
Bit rate mode : Constant
Bit rate : 128 Kbps
Channel(s) : 2 channels
Sampling rate : 48.0 KHz
Compression mode : Lossy
Stream size : 41.4 MiB (7%)
Alignment : Aligned on interleaves
Interleave, duration : 24 ms (0.60 video frame)
Writing library : LAME3.99r
Encoding settings : -m j -V 4 -q 9 -lowpass 17 -b 128

Внимание! Раздача ведётся путём добавления новых серий; при каждом добавлении создётся новый торрент. Чтобы начать докачку новой серии, пользователям необходимо сделать следующее:
  • Остановить скачивание,
  • Удалить старый торрент у себя из клиента (старые серии удалять не надо),
  • Скачать новый торрент и запустить его у себя в клиенте вместо старого, при этом указать клиенту путь в старую папку куда и должно происходить скачивание новых серий.
Ваш клиент при этом должен произвести хеширование (проверку) старой папки (если не производит сам - помогите ему сделать это), и будет докачивать только те серии которых у вас ещё нет. Старые серии при этом не удаляются, а продолжают раздаваться!

Eсли вы уже удалили старые серии, то предотвратить повторную закачку старых серий можно, отжав галочку в соответсвующих местах при запуске нового торрента. По возможности, желательно не удалять старые серии как можно дольше чтобы релизёр не столько продолжал раздавать старые серии, а смог сконцентрироваться на новых.
pb.wtf



Скачать Майор Соколов. Игра без правил через торрент http://pic1.kartinco.top/images/11/gn9se.jpg Скачать фильм Майор Соколов. Игра без правил через торрент бесплантно в хорошем качестве Описание: Продолжение истории о майоре управления собственной безопасности Владе Соколове (Константин ... 9.9 10 12
Торрент: Зарегистрирован [2017-06-22 21:47] · скачан: 202 раз
Статус: √ проверено
Размер: 9.54 GB
Как cкачать? Как скачать Майор Соколов. Игра без правил через торрент | qTorrent

% Раздел Тема Автор DL S | L
Наши сериалы [ 8.02 GB ] Майор Соколов. Игра без правил / Серии: 1-16 из 16 [2017 SATRip-AVC] aleksan55 Скачать
1 | 0


Последний раз редактировалось: oleg8 (2017-06-22 21:46), всего редактировалось 2 раз(а)

28-11-2019 20:33  

Отключить всю рекламу на сайте

20-06-2017 15:53 Майор Соколов. Игра без правил Скачать торрент  

Добавил 5-8 серии.pb.wtf



21-06-2017 13:54 Майор Соколов. Игра без правил Скачать торрент  

Добавленна 9-12 серии.pb.wtf



22-06-2017 21:47 Майор Соколов. Игра без правил Скачать торрент  

Сериал завершен.pb.wtf



    Дорогой пользователь! Огромная просьба, поблагодарите релизера, оцените раздачу и оставьте свои комментарий, если Вы скачали Майор Соколов. Игра без правил через торрент бесплатно! Внесите свою лепту в развитие PiratBit!
    Комментировать посты могут только пользователи прошедшие не сложную регистрацию
    Показать сообщения:    

    Майор Соколов. Игра без правил через торрент
    Скачать бесплатно Майор Соколов. Игра без правил
    Майор Соколов. Игра без правил скачать торрент
    Майор Соколов. Игра без правил смотреть онлайн
    Cкачать фильм Майор Соколов. Игра без правил бесплатно
    Майор Соколов. Игра без правил скачать торрент в хорошем качестве
    Майор Соколов. Игра без правил смотреть онлайн бесплатно в хорошем качестве


    Вы не можете начинать темы
    Вы не можете отвечать на сообщения
    Вы не можете редактировать свои сообщения
    Вы не можете удалять свои сообщения
    Вы не можете голосовать в опросах
    Вы не можете прикреплять файлы к сообщениям
    Вы можете скачивать файлы