Ссылка на приватное зеркало нашего сайта всего за 1$. Внимание количество ограничено!!!

2 сезон

iTunes

1 сезон

1

iTunes

iTunes

iTunes

1 сезон

RePack

30

ИГРА 18+

pack

ВАЖНО

!!Акция!!

Alien_RageХит недели

RePack

MK11
pack

Забери бонус

RePack

jed

!!Акция!!

Alien_Rage

RePack

fifa19

RePack

Assassins Creed: Odyssey

RePack

NEED FOR SPEED™ PAYBACK

4 сезон

9 сезон

Бесстыжие 9 сезон

Все сериалы

все сериалы на PB.wtf

RePack

FAR CRY 5
  

Фамильные ценности / Сезон: 1 / Серии 1-60 из 60 (Татьяна Ивашкина, Владимир Янковский, Александр Шик) [2015, Россия, мелодрама, WEB-DLRip] pb.wtf

Фамильные ценности через торрент pb.wtf

Размер: 32.25 GB | Добавлен: 3 года 3 мес. назад | Торрент скачан:27 раз
Скачать  

20-06-2017 02:31 Фамильные ценности Скачать торрент  

Фамильные ценности


  • Год выпуска: 2015
  • Страна: Россия
  • Жанр: мелодрама
  • Продолжительность: 00:44:12 (Серия)
  • Перевод: Не требуется [Русский]
  • Режиссер: Татьяна Ивашкина, Владимир Янковский, Александр Шик
  • В ролях:

    Анна Пескова (Татьяна Гореева), Виктор Добронравов (Алексей), Ольга Науменко (Анна Гореева, мать Татьяны), Дмитрий Орлов (Олег), Ксения Энтелис (Ольга Гореева, сестра Татьяны), Всеволод Болдин (Игорь Гореев, сын Анны и брат Татьяны Гореевых), Светлана Кожемякина (Зина), Елена Нестерова (Ирина), Петар Зекавица (Роман, психолог), Екатерина Дмитриева (Светлана, подруга Татьяны), Дмитрий Комов (Вологдин), Мария Мина (Лариса Полякова, балерина)


  • Действия разворачиваются в современной Москве. В центре истории талантливая балерина, вокруг которой и будут кипеть страсти, разворачиваться закулисные интриги. Завистливые коллеги не дают покоя успешной танцовщице: ее лучшая подруга «помогает» девушке сломать ногу, а партнер днями не спит - думает, как подставить сильную конкурентку.
  • Рейтинг:



  • Качество: WEB-DLRip
  • Формат: :AVI
  • Видео кодек: XviD
  • Аудио кодек: AC3
  • Видео: 720x400 (16:9), 1540 kbps, 25 fps, 0,214 bpp
  • Аудио: 2.0 / 48 kHz / 192 kbps
  • Релиз от: Files-x

    Внимание! Раздача ведётся путём добавления новых серий; при каждом добавлении создаётся новый торрент. Чтобы начать докачку новой серии, пользователям необходимо сделать следующее:
    (1) остановить скачивание,
    (2) удалить старый торрент у себя из клиента (старые серии удалять не надо),
    (3) скачать новый торрент и запустить его у себя в клиенте вместо старого, при этом указать клиенту путь в старую папку куда и должно происходить скачивание новых серий.
    Ваш клиент при этом должен произвести хеширование (проверку) старой папки (если не производит сам - помогите ему сделать это), и будет докачивать только те серии которых у вас ещё нет. Старые серии при этом не удаляются, а продолжают раздаваться!
    Eсли вы уже удалили старые серии, то предотвратить повторную закачку старых серий можно, отжав галочку в соответсвующих местах при запуске нового торрента. По возможности, желательно не удалять старые серии как можно дольше чтобы релизёр не столько продолжал раздавать старые серии, а смог сконцентрироваться на новых.

    General
    Complete name : D:\Фильмы\Familnyje.cennosti.2017.WEB-DLRip.Files-x\16.Familnyje.cennosti.2017.WEB-DLRip.Files-x.avi
    Format : AVI
    Format/Info : Audio Video Interleave
    File size : 551 MiB
    Duration : 44 min
    Overall bit rate : 1 742 kb/s
    Writing application : VirtualDubMod 1.5.10.3 | www.virtualdub-fr.org || (build 2550/release)
    Writing library : VirtualDubMod build 2550/release

    Video
    ID : 0
    Format : MPEG-4 Visual
    Format profile : Advanced Simple@L5
    Format settings, BVOP : 1
    Format settings, QPel : No
    Format settings, GMC : No warppoints
    Format settings, Matrix : Custom
    Codec ID : XVID
    Codec ID/Hint : XviD
    Duration : 44 min
    Bit rate : 1 540 kb/s
    Width : 720 pixels
    Height : 400 pixels
    Display aspect ratio : 16:9
    Frame rate : 25.000 FPS
    Color space : YUV
    Chroma subsampling : 4:2:0
    Bit depth : 8 bits
    Scan type : Progressive
    Compression mode : Lossy
    Bits/(Pixel*Frame) : 0.214
    Stream size : 487 MiB (88%)
    Writing library : XviD 73

    Audio
    ID : 1
    Format : AC-3
    Format/Info : Audio Coding 3
    Mode extension : CM (complete main)
    Format settings, Endianness : Big
    Codec ID : 2000
    Duration : 44 min
    Bit rate mode : Constant
    Bit rate : 192 kb/s
    Channel(s) : 2 channels
    Channel positions : Front: L R
    Sampling rate : 48.0 kHz
    Frame rate : 31.250 FPS (1536 spf)
    Compression mode : Lossy
    Stream size : 60.7 MiB (11%)
    Alignment : Split accross interleaves
    Interleave, duration : 40 ms (1.00 video frame)
    Interleave, preload duration : 500 ms

    Скриншоты:
    скриншот   скриншот   скриншот   скриншот   скриншот   скриншот   скриншот  
    скриншот  

    Раздача ведётся путём добавления новых серий. Добавлена 60 серия (22.07.2017).Просьба перекачать торрент файл.

    pb.wtf



  • Скачать Фамильные ценности через торрент http://i95.fastpic.ru/big/2017/0620/a0/0142547b4faebaf82296c28f272401a0.jpg Скачать фильм Фамильные ценности через торрент бесплантно в хорошем качестве qw.png Действия разворачиваются в современной Москве. В центре истории талантливая балерина, вокруг которой и будут кипеть страсти, ... 1 10 1
    Info! Золотая раздача, скачанное не засчитывается.
    Торрент: Зарегистрирован [2017-07-22 01:26] · скачан: 27 раз
    Статус: √ проверено
    Размер: 32.25 GB
    Как cкачать? Как скачать Фамильные ценности через торрент | qTorrent

    28-11-2019 20:33  

    Отключить всю рекламу на сайте

      Дорогой пользователь! Огромная просьба, поблагодарите релизера, оцените раздачу и оставьте свои комментарий, если Вы скачали Фамильные ценности через торрент бесплатно! Внесите свою лепту в развитие PiratBit!
      Комментировать посты могут только пользователи прошедшие не сложную регистрацию
      Показать сообщения:    

      Фамильные ценности через торрент
      Скачать бесплатно Фамильные ценности
      Фамильные ценности скачать торрент
      Фамильные ценности смотреть онлайн
      Cкачать фильм Фамильные ценности бесплатно
      Фамильные ценности скачать торрент в хорошем качестве
      Фамильные ценности смотреть онлайн бесплатно в хорошем качестве


      Вы не можете начинать темы
      Вы не можете отвечать на сообщения
      Вы не можете редактировать свои сообщения
      Вы не можете удалять свои сообщения
      Вы не можете голосовать в опросах
      Вы не можете прикреплять файлы к сообщениям
      Вы можете скачивать файлы