Ссылка на приватное зеркало всего за 1$. Внимание количество ограничено!!!

iTunes

iTunes

iTunes

1

iTunes

iTunes

iTunes

iTunes

iTunes

30
pack

$ от Little Big

ВАЖНО

!!Акция!!

Alien_RageХит недели

RePack

Resident Evil 21

ИГРА 18+

pack

RePack

jed

!!Акция!!

Alien_Rage

RePack

fifa19

RePack

Assassins Creed: Odyssey

RePack

NEED FOR SPEED™ PAYBACK

4 сезон

9 сезон

Бесстыжие 9 сезон

Все сериалы

все сериалы на PB.wtf

RePack

FAR CRY 5
  

Затерянный город Z / The Lost City of Z (Джеймс Грэй) [2016, боевик, драма, приключения, биография, история, WEB-DL 720p] DUB [iTunes] pb.wtf

Затерянный город Z через торрент pb.wtf

Размер: 4.19 GB | Добавлен: 3 года назад | Торрент скачан:480 раз
Скачать  

20-06-2017 05:14 Затерянный город Z Скачать торрент  

Затерянный город Z / The Lost City of Z
Год выпуска: 2016
Страна: США
Жанр: боевик, драма, приключения, биография, история
Продолжительность: 02:14:58
Перевод: Дубляж [iTunes]
Субтитры: отсутствуют

Режиссер: Джеймс Грэй

rating

В ролях:

Чарли Ханнэм, Роберт Паттинсон, Сиенна Миллер, Том Холланд, Эдвард Эшли, Энгус МакФадьен, Иен МакДермид, Клайв Фрэнсис

Описание:

Эльдорадо, таинственная столица инков, загадочный Город Z… Вымысел или реальность..? В 1925 году экспедиция полковника Фоссета, члена Королевского Географического общества, бесследно исчезла в джунглях Амазонии в поисках Города Z…

Качество: WEB-DL 720p
Формат: MKV
Видео кодек: H.264
Аудио кодек: AC3

Видео: 1280@960x536 (2.40:1), 25.000 fps, MPEG-4 AVC ~4 055 kbps avg
Аудио#1: 48 kHz, AC3 Dolby Digital, 3/2 (L,C,R,l,r) + LFE ch, ~384 kbps
скриншот   скриншот   скриншот  

Общее
Уникальный идентификатор : 206785948929686787454577994367732653812 (0x9B91866DC1296A12B0185E8142199EF4)
Полное имя : D:\GoroD.Z.2O17.D.WEB-DL.72Op.mkv
Формат : Matroska
Версия формата : Version 2
Размер файла : 4,19 Гбайт
Продолжительность : 2 ч. 14 м.
Общий поток : 4441 Кбит/сек
Дата кодирования : UTC 2017-06-19 18:10:54
Программа кодирования : mkvmerge v8.3.0 ('Over the Horizon') 64bit
Библиотека кодирования : libebml v1.3.1 + libmatroska v1.4.2

Видео
Идентификатор : 1
Формат : AVC
Формат/Информация : Advanced Video Codec
Профиль формата : Main@L3.1
Параметр CABAC формата : Нет
Параметр ReFrames формата : 2 кадра
Идентификатор кодека : V_MPEG4/ISO/AVC
Продолжительность : 2 ч. 14 м.
Битрейт : 4055 Кбит/сек
Ширина : 960 пикселей
Высота : 536 пикселей
Соотношение сторон : 2,40:1
Режим частоты кадров : Постоянный
Частота кадров : 25,000 кадров/сек
Цветовое пространство : YUV
Субдискретизация насыщенности : 4:2:0
Битовая глубина : 8 бит
Тип развёртки : Прогрессивная
Бит/(Пиксели*Кадры) : 0.315
Размер потока : 3,82 Гбайт (91%)
Язык : English
Default : Да
Forced : Нет
Цветовой диапазон : Limited
Основные цвета : BT.709
Характеристики трансфера : BT.709
Коэффициенты матрицы : BT.709

Аудио
Идентификатор : 2
Формат : AC-3
Формат/Информация : Audio Coding 3
Расширение режима : CM (complete main)
Параметр Endianness формата : Big
Идентификатор кодека : A_AC3
Продолжительность : 2 ч. 14 м.
Вид битрейта : Постоянный
Битрейт : 384 Кбит/сек
Каналы : 6 каналов
Расположение каналов : Front: L C R, Side: L R, LFE
Частота : 48,0 КГц
Частота кадров : 31,250 кадров/сек (1536 spf)
Метод сжатия : С потерями
Размер потока : 371 Мбайт (9%)
Язык : Russian
Default : Да
Forced : Нет

Меню
00:00:00.000 : en:Глава 1
00:07:40.240 : en:Глава 2
00:14:33.680 : en:Глава 3
00:19:50.680 : en:Глава 4
00:25:42.320 : en:Глава 5
00:31:17.120 : en:Глава 6
00:35:51.200 : en:Глава 7
00:42:47.600 : en:Глава 8
00:47:13.560 : en:Глава 9
00:55:41.360 : en:Глава 10
01:01:43.320 : en:Глава 11
01:07:54.720 : en:Глава 12
01:14:15.160 : en:Глава 13
01:19:22.200 : en:Глава 14
01:26:38.960 : en:Глава 15
01:35:19.999 : en:Глава 16
01:42:32.759 : en:Глава 17
01:48:52.319 : en:Глава 18
01:53:46.799 : en:Глава 19
02:02:57.439 : en:Глава 20

pb.wtf



Скачать Затерянный город Z через торрент http://img11.lostpic.net/2017/04/20/9939fffdfcb0ed507d3dc8208c8b6c8a.png Скачать фильм Затерянный город Z через торрент бесплантно в хорошем качестве Описание: Эльдорадо, таинственная столица инков, загадочный Город Z… Вымысел или реальность..? В 1925 году экспедиция полковника Фоссета, ... 9.7 10 23
Info! Золотая раздача, скачанное не засчитывается.
Торрент: Зарегистрирован [2017-06-20 05:14] · скачан: 480 раз
Статус: √ проверено
Размер: 4.19 GB
Как cкачать? Как скачать Затерянный город Z через торрент | qTorrent

% Раздел Тема Автор DL S | L
Фильмы [HD 720p, 1080p] (Хороший звук DUB, MVO) [ 8.85 GB ] Затерянный город Z / The Lost City of Z [2016 биография история BDRip 720p] DUB [] bober100 Скачать
1 | 0
Фильмы 2016 [DVDrip, WEB-DLRip, HDrip] (DUB, MVO) [ 2.87 GB ] Затерянный город Z / The Lost City of Z [2016 BDRip-AVC] sokol_ok Скачать
3 | 0
Фильмы 2016 [DVDrip, WEB-DLRip, HDrip] (DUB, MVO) [ 754 MB ] Затерянный город Z / The Lost City of Z [2016 BDRip-AVC] sokol_ok Скачать
2 | 0
Фильмы 2016 [DVDrip, WEB-DLRip, HDrip] (DUB, MVO) [ 1.5 GB ] Затерянный город Z / The Lost City of Z [2016 BDRip-AVC] sokol_ok Скачать
2 | 0
Фильмы [HD 720p, 1080p] (Хороший звук DUB, MVO) [ 15.8 GB ] Затерянный город Z / The Lost City of Z [2016 биография история BDRip 1080p] DUB [] bober100 Скачать
2 | 0
Фильмы (Blu-ray, BD-Remux, HDDVD) [ 41.45 GB ] Затерянный город Z / The Lost City of Z [2016 биография история BD Remux 1080p] DUB [] bober100 Скачать
1 | 0
Фильмы (Blu-ray, BD-Remux, HDDVD) [ 21.71 GB ] Затерянный город Z / The Lost City of Z [2016 биография история Blu-ray 1080p] [RUS Transfer] DUB [] bober100 Скачать
1 | 0

28-11-2019 20:33  

Отключить всю рекламу на сайте

20-06-2017 08:05 Затерянный город Z Скачать торрент  

как кино? задумка толковая...pb.wtf



21-06-2017 07:55 Затерянный город Z Скачать торрент  

mrAmerica писал(а):

как кино? задумка толковая...

Да как-как... Почитай на википедии про Роанок, интереснее будет. 6,5/10pb.wtf



22-06-2017 07:58 Затерянный город Z Скачать торрент  

mrAmerica писал(а):

как кино? задумка толковая...

В целом не плохо. 6/10pb.wtf



    Дорогой пользователь! Огромная просьба, поблагодарите релизера, оцените раздачу и оставьте свои комментарий, если Вы скачали Затерянный город Z через торрент бесплатно! Внесите свою лепту в развитие PiratBit!
    Комментировать посты могут только пользователи прошедшие не сложную регистрацию
    Показать сообщения:    

    Затерянный город Z через торрент
    Скачать бесплатно Затерянный город Z
    Затерянный город Z скачать торрент
    Затерянный город Z смотреть онлайн
    Cкачать фильм Затерянный город Z бесплатно
    Затерянный город Z скачать торрент в хорошем качестве
    Затерянный город Z смотреть онлайн бесплатно в хорошем качестве


    Вы не можете начинать темы
    Вы не можете отвечать на сообщения
    Вы не можете редактировать свои сообщения
    Вы не можете удалять свои сообщения
    Вы не можете голосовать в опросах
    Вы не можете прикреплять файлы к сообщениям
    Вы можете скачивать файлы