Ссылка на приватное зеркало нашего сайта всего за 1$. Внимание количество ограничено!!!

2 сезон

iTunes

1 сезон

1

iTunes

iTunes

iTunes

1 сезон

RePack

30

ИГРА 18+

pack

ВАЖНО

!!Акция!!

Alien_RageХит недели

RePack

MK11
pack

Забери бонус

RePack

jed

!!Акция!!

Alien_Rage

RePack

fifa19

RePack

Assassins Creed: Odyssey

RePack

NEED FOR SPEED™ PAYBACK

4 сезон

9 сезон

Бесстыжие 9 сезон

Все сериалы

все сериалы на PB.wtf

RePack

FAR CRY 5
  

Анатомия убийства / Anatomy of a Murder (Отто Премингер) [1959, триллер, драма, криминал, детектив, BDRip 1080p by msltel] MVO, AVO pb.wtf

Анатомия убийства через торрент pb.wtf

Размер: 18.01 GB | Добавлен: 3 года 3 мес. назад | Торрент скачан:5 раз
Скачать  

20-06-2017 09:11 Анатомия убийства Скачать торрент  

Название: Анатомия убийства
Оригинальное название: Anatomy of a Murder
Год выпуска: 1959
Страна: США
Жанр: триллер, драма, криминал, детектив
Продолжительность: 02:40:46
Перевод: профессиональный многоголосый, авторский

Режиссёр: Отто Премингер

В ролях: Ли Ремик, Бен Газзара, Джеймс Стюарт, Русс Браун, Артур О'Коннелл, Ив Арден, Кэтрин Грант, Джордж К. Скотт, Орсон Бин, Мюррэй Хэмилтон, Кен Линч, Джон Куолен, Ройал Бил, Ховард МакНиар, Александр Кэмпбелл, Нед Уэвер, Джимми Конлин, Джозеф Кернс, Дон Росс, Джеймс Уотерс

Описание: Лейтенант армии Фредерик Майнон арестован за убийство владельца бара Барни Куилла. Он утверждает, что бармен избил и изнасиловал его жену Лауру. И хотя Лаура полностью подтверждает версию мужа, судмедэксперт не может найти доказательств её изнасилования. Защищать Майнона поручают Полу Биглеру, скромному провинциальному адвокату. Обвиняемый не идёт на сотрудничество, и дело ведёт судья из другого города. Биглер понимает, что предстоит очень трудный процесс, и шансов выиграть дело у него не так уж много...



Качество: BDRip 1080p
Формат: MKV
Видео: MPEG-4 AVC, 14.1 Mбит/с, 1920x1038
Аудио 1: русский, AC3, 192 kbps, 2 ch, 48 kHz [профессиональный многоголосый, OPT]
Аудио 2: русский, AC3, 192 kbps, 2 ch, 48 kHz [авторский, Алексей Медведев]
Аудио 3: английский, DTS, 1509 kbps, 6 ch, 48 kHz [оригинал]
Субтитры: английские
Имеются неименованные главы/чаптеры.
Общее
Уникальный идентификатор : 177183282293992807613878764726545312507 (0x854C42475E14FE3FA75647936BB46AFB)
Полное имя : D:\Video\Анатомия убийства.1959.BDRip.1080p by msltel.mkv
Формат : Matroska
Версия формата : Version 4 / Version 2
Размер файла : 18,0 Гбайт
Продолжительность : 2 ч. 40 м.
Общий поток : 16,0 Мбит/сек
Название фильма : Rip by msltel
Дата кодирования : UTC 2017-06-18 16:45:11
Программа кодирования : mkvmerge v8.2.0 ('World of Adventure') 64bit
Библиотека кодирования : libebml v1.3.1 + libmatroska v1.4.2

Видео
Идентификатор : 1
Формат : AVC
Формат/Информация : Advanced Video Codec
Профиль формата : High@L4.1
Параметр CABAC формата : Да
Параметр ReFrames формата : 4 кадра
Идентификатор кодека : V_MPEG4/ISO/AVC
Продолжительность : 2 ч. 40 м.
Битрейт : 14,1 Мбит/сек
Ширина : 1920 пикселей
Высота : 1038 пикселей
Соотношение сторон : 1,85:1
Режим частоты кадров : Постоянный
Частота кадров : 23,976 (24000/1001) кадра/сек
Цветовое пространство : YUV
Субдискретизация насыщенности : 4:2:0
Битовая глубина : 8 бит
Тип развёртки : Прогрессивная
Бит/(Пиксели*Кадры) : 0.296
Размер потока : 15,9 Гбайт (88%)
Библиотека кодирования : x264 core 146 r2538 121396c
Настройки программы : cabac=1 / ref=4 / deblock=1:-3:-2 / analyse=0x3:0x113 / me=umh / subme=11 / psy=1 / psy_rd=1.00:0.15 / mixed_ref=1 / me_range=32 / chroma_me=1 / trellis=2 / 8x8dct=1 / cqm=0 / deadzone=21,11 / fast_pskip=0 / chroma_qp_offset=-3 / threads=6 / lookahead_threads=1 / sliced_threads=0 / nr=0 / decimate=1 / interlaced=0 / bluray_compat=0 / constrained_intra=0 / bframes=11 / b_pyramid=2 / b_adapt=2 / b_bias=0 / direct=1 / weightb=1 / open_gop=0 / weightp=2 / keyint=230 / keyint_min=23 / scenecut=40 / intra_refresh=0 / rc_lookahead=40 / rc=crf / mbtree=0 / crf=19.4 / qcomp=0.60 / qpmin=0 / qpmax=69 / qpstep=4 / vbv_maxrate=62500 / vbv_bufsize=78125 / crf_max=0.0 / nal_hrd=none / filler=0 / ip_ratio=1.40 / pb_ratio=1.30 / aq=1:1.00
Язык : English
Default : Да
Forced : Нет

Аудио #1
Идентификатор : 2
Формат : AC-3
Формат/Информация : Audio Coding 3
Параметр Endianness формата : Big
Идентификатор кодека : A_AC3
Продолжительность : 2 ч. 40 м.
Вид битрейта : Постоянный
Битрейт : 192 Кбит/сек
Каналы : 2 канала
Расположение каналов : Front: L R
Частота : 48,0 КГц
Частота кадров : 31,250 кадров/сек (1536 spf)
Битовая глубина : 16 бит
Метод сжатия : С потерями
Размер потока : 221 Мбайт (1%)
Заголовок : MVO (OPT)
Язык : Russian
ServiceKind/String : Complete Main
Default : Да
Forced : Нет

Аудио #2
Идентификатор : 3
Формат : AC-3
Формат/Информация : Audio Coding 3
Параметр Endianness формата : Big
Идентификатор кодека : A_AC3
Продолжительность : 2 ч. 40 м.
Вид битрейта : Постоянный
Битрейт : 192 Кбит/сек
Каналы : 2 канала
Расположение каналов : Front: L R
Частота : 48,0 КГц
Частота кадров : 31,250 кадров/сек (1536 spf)
Битовая глубина : 16 бит
Метод сжатия : С потерями
Размер потока : 221 Мбайт (1%)
Заголовок : AVO (Алексей Медведев)
Язык : Russian
ServiceKind/String : Complete Main
Default : Нет
Forced : Нет

Аудио #3
Идентификатор : 4
Формат : DTS
Формат/Информация : Digital Theater Systems
Режим : 16
Параметр Endianness формата : Big
Идентификатор кодека : A_DTS
Продолжительность : 2 ч. 40 м.
Вид битрейта : Постоянный
Битрейт : 1509 Кбит/сек
Каналы : 6 каналов
Расположение каналов : Front: L C R, Side: L R, LFE
Частота : 48,0 КГц
Частота кадров : 93,750 кадра/сек (512 spf)
Битовая глубина : 24 бит
Метод сжатия : С потерями
Размер потока : 1,69 Гбайт (9%)
Заголовок : original
Язык : English
Default : Нет
Forced : Нет

Текст
Идентификатор : 5
Формат : UTF-8
Идентификатор кодека : S_TEXT/UTF8
Идентификатор кодека/Информация : UTF-8 Plain Text
Продолжительность : 2 ч. 40 м.
Битрейт : 104 бит/сек
ElementCount : 2658
Размер потока : 123 Кбайт (0%)
Заголовок : английские
Язык : English
Default : Нет
Forced : Нет

Меню
00:00:00.000 : :Chapter 01
00:10:33.340 : :Chapter 02
00:24:05.694 : :Chapter 03
00:36:18.801 : :Chapter 04
00:42:58.117 : :Chapter 05
00:52:25.392 : :Chapter 06
00:58:06.024 : :Chapter 07
01:06:17.180 : :Chapter 08
01:15:34.780 : :Chapter 09
01:25:29.541 : :Chapter 10
01:39:17.618 : :Chapter 11
01:46:35.597 : :Chapter 12
01:53:30.386 : :Chapter 13
01:59:19.277 : :Chapter 14
02:13:13.527 : :Chapter 15
02:21:22.599 : :Chapter 16
02:28:16.929 : :Chapter 17
02:34:03.150 : :Chapter 18
02:40:46.011 : :Chapter 19
pb.wtf



Скачать Анатомия убийства через торрент http://s019.radikal.ru/i642/1706/9c/457101f337e4.jpg Скачать фильм Анатомия убийства через торрент бесплантно в хорошем качестве Описание: Лейтенант армии Фредерик Майнон арестован за убийство владельца бара Барни Куилла. Он утверждает, что бармен избил и изнасиловал ... 10 10 2
Info! Золотая раздача, скачанное не засчитывается.
Торрент: Зарегистрирован [2017-06-20 09:11] · скачан: 5 раз
Статус: √ проверено
Размер: 18.01 GB
Как cкачать? Как скачать Анатомия убийства через торрент | qTorrent

% Раздел Тема Автор DL S | L
Фильмы [HD 720p, 1080p] (Хороший звук DUB, MVO) [ 7.13 GB ] Анатомия убийства / Anatomy of a Murder [1959 BDRip 720p by msltel] MVO AVO msltel Скачать
1 | 0
Классика зарубежного кино [ 4.37 GB ] Анатомия убийства / Anatomy of a Murder [1959 BDRip-AVC] MVO AVO koenig Скачать
1 | 0

28-11-2019 20:33  

Отключить всю рекламу на сайте

    Дорогой пользователь! Огромная просьба, поблагодарите релизера, оцените раздачу и оставьте свои комментарий, если Вы скачали Анатомия убийства через торрент бесплатно! Внесите свою лепту в развитие PiratBit!
    Комментировать посты могут только пользователи прошедшие не сложную регистрацию
    Показать сообщения:    

    Анатомия убийства через торрент
    Скачать бесплатно Анатомия убийства
    Анатомия убийства скачать торрент
    Анатомия убийства смотреть онлайн
    Cкачать фильм Анатомия убийства бесплатно
    Анатомия убийства скачать торрент в хорошем качестве
    Анатомия убийства смотреть онлайн бесплатно в хорошем качестве


    Вы не можете начинать темы
    Вы не можете отвечать на сообщения
    Вы не можете редактировать свои сообщения
    Вы не можете удалять свои сообщения
    Вы не можете голосовать в опросах
    Вы не можете прикреплять файлы к сообщениям
    Вы можете скачивать файлы