Ссылка на приватное зеркало нашего сайта всего за 1$. Внимание количество ограничено!!!

2 сезон

iTunes

1 сезон

1

iTunes

iTunes

iTunes

1 сезон

RePack

30

ИГРА 18+

pack

ВАЖНО

!!Акция!!

Alien_RageХит недели

RePack

MK11
pack

Забери бонус

RePack

jed

!!Акция!!

Alien_Rage

RePack

fifa19

RePack

Assassins Creed: Odyssey

RePack

NEED FOR SPEED™ PAYBACK

4 сезон

9 сезон

Бесстыжие 9 сезон

Все сериалы

все сериалы на PB.wtf

RePack

FAR CRY 5
  

Избави нас от лукавого / Deliver Us from Evil (Скотт Дерриксон) [2014, ужасы, триллер, детектив, BDRip 1080p by msltel] DUB, 3 x AVO pb.wtf

Избави нас от лукавого через торрент pb.wtf

Размер: 11.99 GB | Добавлен: 3 года 4 мес. назад | Торрент скачан:122 раза
Скачать  

20-06-2017 09:59 Избави нас от лукавого Скачать торрент  

Название: Избави нас от лукавого
Оригинальное название: Deliver Us from Evil
Год выпуска: 2014
Страна: США
Жанр: ужасы, триллер, детектив
Продолжительность: 01:58:26
Перевод: дублированный, авторский

Режиссёр: Скотт Дерриксон

В ролях: Эрик Бана, Эдгар Рамирес, Оливия Манн, Крис Кой, Дориан Миссик, Шон Харрис, Джоэл МакХэйл, Майк Хьюстон, Лулу Уилсон, Оливия Хортон

Описание: Полиция Нью-Йорка расследует серию тревожных и необъяснимых преступлений. Один из офицеров обращается за помощью к специалисту по экзорцизму, чтобы избавить город от дьявольской напасти... Фильм снят по мотивам книги нью-йоркского полицейского Ральфа Сарчи «Остерегайтесь ночи» (Beware of the night), которая была написана на основе его личного опыта.



Качество: BDRip 1080p
Формат: MKV
Видео: MPEG-4 AVC, 7818 Кбит/с, 1920x800
Аудио 1: русский, AC3, 640 kbps, 6 ch [дублированный, Blu-ray CEE]
Аудио 2: русский, DTS, 1509 kbps, 6 ch [авторский, Андрей Дольский]
Аудио 3: русский, DTS, 1509 kbps, 6 ch [авторский, Алексей Матвеев, с ненормативной лексикой]
Аудио 4: русский, DTS, 1509 kbps, 6 ch [авторский, Юрий Немахов]
Аудио 5: английский, DTS, 1509 kbps, 6 ch, 48 kHz [оригинал]
Субтитры 1: русские (надписи)
Субтитры 2: русские
Субтитры 3: английские
Имеются неименованные главы/чаптеры.
Общее
Уникальный идентификатор : 202007118322407621542659880262895363965 (0x97F927E388D1139FA0097B3A0F03677D)
Полное имя : D:\Video\Избави нас от лукавого.2014.BDRip.1080p by msltel.mkv
Формат : Matroska
Версия формата : Version 4 / Version 2
Размер файла : 12,0 Гбайт
Продолжительность : 1 ч. 58 м.
Общий поток : 14,5 Мбит/сек
Название фильма : Rip by msltel
Дата кодирования : UTC 2017-06-20 06:41:34
Программа кодирования : mkvmerge v8.2.0 ('World of Adventure') 64bit
Библиотека кодирования : libebml v1.3.1 + libmatroska v1.4.2

Видео
Идентификатор : 1
Формат : AVC
Формат/Информация : Advanced Video Codec
Профиль формата : High@L4.1
Параметр CABAC формата : Да
Параметр ReFrames формата : 4 кадра
Идентификатор кодека : V_MPEG4/ISO/AVC
Продолжительность : 1 ч. 58 м.
Битрейт : 7818 Кбит/сек
Ширина : 1920 пикселей
Высота : 800 пикселей
Соотношение сторон : 2,40:1
Режим частоты кадров : Постоянный
Частота кадров : 23,976 (24000/1001) кадра/сек
Цветовое пространство : YUV
Субдискретизация насыщенности : 4:2:0
Битовая глубина : 8 бит
Тип развёртки : Прогрессивная
Бит/(Пиксели*Кадры) : 0.212
Размер потока : 6,47 Гбайт (54%)
Библиотека кодирования : x264 core 146 r2538 121396c
Настройки программы : cabac=1 / ref=4 / deblock=1:-3:-2 / analyse=0x3:0x113 / me=umh / subme=11 / psy=1 / psy_rd=1.00:0.15 / mixed_ref=1 / me_range=32 / chroma_me=1 / trellis=2 / 8x8dct=1 / cqm=0 / deadzone=21,11 / fast_pskip=0 / chroma_qp_offset=-3 / threads=6 / lookahead_threads=1 / sliced_threads=0 / nr=0 / decimate=1 / interlaced=0 / bluray_compat=0 / constrained_intra=0 / bframes=7 / b_pyramid=2 / b_adapt=2 / b_bias=0 / direct=1 / weightb=1 / open_gop=0 / weightp=2 / keyint=230 / keyint_min=23 / scenecut=40 / intra_refresh=0 / rc_lookahead=40 / rc=crf / mbtree=0 / crf=18.5 / qcomp=0.60 / qpmin=0 / qpmax=69 / qpstep=4 / vbv_maxrate=62500 / vbv_bufsize=78125 / crf_max=0.0 / nal_hrd=none / filler=0 / ip_ratio=1.40 / pb_ratio=1.30 / aq=1:1.00
Язык : English
Default : Да
Forced : Нет

Аудио #1
Идентификатор : 2
Формат : AC-3
Формат/Информация : Audio Coding 3
Параметр Endianness формата : Big
Идентификатор кодека : A_AC3
Продолжительность : 1 ч. 58 м.
Вид битрейта : Постоянный
Битрейт : 640 Кбит/сек
Каналы : 6 каналов
Расположение каналов : Front: L C R, Side: L R, LFE
Частота : 48,0 КГц
Частота кадров : 31,250 кадров/сек (1536 spf)
Битовая глубина : 16 бит
Метод сжатия : С потерями
Размер потока : 542 Мбайт (4%)
Заголовок : DUB (Blu-ray CEE)
Язык : Russian
ServiceKind/String : Complete Main
Default : Да
Forced : Нет

Аудио #2
Идентификатор : 3
Формат : DTS
Формат/Информация : Digital Theater Systems
Режим : 16
Параметр Endianness формата : Big
Идентификатор кодека : A_DTS
Продолжительность : 1 ч. 58 м.
Вид битрейта : Постоянный
Битрейт : 1509 Кбит/сек
Каналы : 6 каналов
Расположение каналов : Front: L C R, Side: L R, LFE
Частота : 48,0 КГц
Частота кадров : 93,750 кадра/сек (512 spf)
Битовая глубина : 16 бит
Метод сжатия : С потерями
Размер потока : 1,25 Гбайт (10%)
Заголовок : AVO (Андрей Дольский)
Язык : Russian
Default : Нет
Forced : Нет

Аудио #3
Идентификатор : 4
Формат : DTS
Формат/Информация : Digital Theater Systems
Режим : 16
Параметр Endianness формата : Big
Идентификатор кодека : A_DTS
Продолжительность : 1 ч. 58 м.
Вид битрейта : Постоянный
Битрейт : 1509 Кбит/сек
Каналы : 6 каналов
Расположение каналов : Front: L C R, Side: L R, LFE
Частота : 48,0 КГц
Частота кадров : 93,750 кадра/сек (512 spf)
Битовая глубина : 16 бит
Метод сжатия : С потерями
Размер потока : 1,25 Гбайт (10%)
Заголовок : AVO (Алексей Матвеев, с ненормативной лексикой))
Язык : Russian
Default : Нет
Forced : Нет

Аудио #4
Идентификатор : 5
Формат : DTS
Формат/Информация : Digital Theater Systems
Режим : 16
Параметр Endianness формата : Big
Идентификатор кодека : A_DTS
Продолжительность : 1 ч. 58 м.
Вид битрейта : Постоянный
Битрейт : 1509 Кбит/сек
Каналы : 6 каналов
Расположение каналов : Front: L C R, Side: L R, LFE
Частота : 48,0 КГц
Частота кадров : 93,750 кадра/сек (512 spf)
Битовая глубина : 16 бит
Метод сжатия : С потерями
Размер потока : 1,25 Гбайт (10%)
Заголовок : AVO (Юрий Немахов)
Язык : Russian
Default : Нет
Forced : Нет

Аудио #5
Идентификатор : 6
Формат : DTS
Формат/Информация : Digital Theater Systems
Режим : 16
Параметр Endianness формата : Big
Идентификатор кодека : A_DTS
Продолжительность : 1 ч. 58 м.
Вид битрейта : Постоянный
Битрейт : 1509 Кбит/сек
Каналы : 6 каналов
Расположение каналов : Front: L C R, Side: L R, LFE
Частота : 48,0 КГц
Частота кадров : 93,750 кадра/сек (512 spf)
Битовая глубина : 16 бит
Метод сжатия : С потерями
Размер потока : 1,25 Гбайт (10%)
Заголовок : original
Язык : English
Default : Нет
Forced : Нет

Текст #1
Идентификатор : 7
Формат : UTF-8
Идентификатор кодека : S_TEXT/UTF8
Идентификатор кодека/Информация : UTF-8 Plain Text
Продолжительность : 1 ч. 52 м.
Битрейт : 1 бит/сек
ElementCount : 30
Размер потока : 1,36 Кбайт (0%)
Заголовок : русские (надписи)
Язык : Russian
Default : Да
Forced : Да

Текст #2
Идентификатор : 8
Формат : UTF-8
Идентификатор кодека : S_TEXT/UTF8
Идентификатор кодека/Информация : UTF-8 Plain Text
Продолжительность : 1 ч. 50 м.
Битрейт : 70 бит/сек
ElementCount : 1138
Размер потока : 56,7 Кбайт (0%)
Заголовок : русские
Язык : Russian
Default : Нет
Forced : Нет

Текст #3
Идентификатор : 9
Формат : UTF-8
Идентификатор кодека : S_TEXT/UTF8
Идентификатор кодека/Информация : UTF-8 Plain Text
Продолжительность : 1 ч. 52 м.
Битрейт : 42 бит/сек
ElementCount : 1208
Размер потока : 34,8 Кбайт (0%)
Заголовок : английские
Язык : English
Default : Нет
Forced : Нет

Меню
00:00:00.000 : en:Chapter 01
00:04:54.585 : en:Chapter 02
00:11:11.837 : en:Chapter 03
00:17:51.070 : en:Chapter 04
00:29:42.363 : en:Chapter 05
00:36:24.724 : en:Chapter 06
00:43:08.586 : en:Chapter 07
00:49:09.780 : en:Chapter 08
00:57:52.385 : en:Chapter 09
01:06:12.218 : en:Chapter 10
01:12:45.277 : en:Chapter 11
01:19:45.071 : en:Chapter 12
01:30:14.575 : en:Chapter 13
01:36:53.599 : en:Chapter 14
01:41:59.279 : en:Chapter 15
01:48:39.221 : en:Chapter 16
pb.wtf



Скачать Избави нас от лукавого через торрент http://s019.radikal.ru/i618/1706/99/ec892966c8c4.jpg Скачать фильм Избави нас от лукавого через торрент бесплантно в хорошем качестве Описание: Полиция Нью-Йорка расследует серию тревожных и необъяснимых преступлений. Один из офицеров обращается за помощью к специалисту по ... 10 10 10
Info! Золотая раздача, скачанное не засчитывается.
Торрент: Зарегистрирован [2017-06-20 09:59] · скачан: 122 раз
Статус: √ проверено
Размер: 11.99 GB
Как cкачать? Как скачать Избави нас от лукавого через торрент | qTorrent

% Раздел Тема Автор DL S | L
Фильмы [HD 720p, 1080p] (Хороший звук DUB, MVO) [ 4.43 GB ] Избави нас от лукавого / Deliver Us from Evil [2014 BDRip 720p by msltel] DUB 3 x AVO msltel Скачать
1 | 0

28-11-2019 20:33  

Отключить всю рекламу на сайте

21-06-2017 11:32 Избави нас от лукавого Скачать торрент  

Классный фильм

P.S. В 2006 году вышел фильм "Избавь нас от лукавого", документалка про священника педофила. Ну а в этом фильме есть пара диалогов с отсылкой к документальному фильму.pb.wtf



    Дорогой пользователь! Огромная просьба, поблагодарите релизера, оцените раздачу и оставьте свои комментарий, если Вы скачали Избави нас от лукавого через торрент бесплатно! Внесите свою лепту в развитие PiratBit!
    Комментировать посты могут только пользователи прошедшие не сложную регистрацию
    Показать сообщения:    

    Избави нас от лукавого через торрент
    Скачать бесплатно Избави нас от лукавого
    Избави нас от лукавого скачать торрент
    Избави нас от лукавого смотреть онлайн
    Cкачать фильм Избави нас от лукавого бесплатно
    Избави нас от лукавого скачать торрент в хорошем качестве
    Избави нас от лукавого смотреть онлайн бесплатно в хорошем качестве


    Вы не можете начинать темы
    Вы не можете отвечать на сообщения
    Вы не можете редактировать свои сообщения
    Вы не можете удалять свои сообщения
    Вы не можете голосовать в опросах
    Вы не можете прикреплять файлы к сообщениям
    Вы можете скачивать файлы