2 сезон

iTunes

MVO

1

2 сезон

iTunes

iTunes

1 сезон

RePack

30

Новинка

ВАЖНО

ИГРА 18+

pack

RePack

MK11
pack

Легкие деньги

RePack

jed

RePack

fifa19

RePack

RDR2

RePack

NEED FOR SPEED™ PAYBACK

4 сезон

9 сезон

Бесстыжие 9 сезон

Все сериалы

все сериалы на PB.wtf

RePack

FAR CRY 5

Anonymous, доброе утро, мы не успеваем собрать деньги на оплату серверов за декабрь и январь, помогите нам пожалуйста в это трудное время. В качестве благодарности мы отключим Вам всю рекламу на сайте (укажите свой ник в строку Ваше имя)!

×
  
Magnet ссылка

Лжец, Великий и Ужасный / The Wizard of Lies (Барри Левинсон) [2017 г., Драма, криминал, биография, WEB-DL 1080p, Профессиональный (многоголосый)] [Line] pb.wtf

Лжец, Великий и Ужасный через торрент pb.wtf

Размер: 4.79 GB | Добавлен: 3 года 7 мес. назад | Торрент скачан:1018 раз
Скачать  

20-06-2017 17:53 Лжец, Великий и Ужасный Скачать торрент  

Лжец Великий и Ужасный / The Wizard of Lies
Год выпуска: 2017
Страна: США
Жанр: Драма, криминал, биография
Продолжительность: 02:14:02
Перевод: Профессиональный (многоголосый)(Чистый звук)
Субтитры: нет

Режиссер: Барри Левинсон

Премьера в мире: 20 мая 2017

rating

В ролях: Мишель Пфайффер, Роберт Де Ниро, Хэнк Азария, Кристен Коннолли, Алессандро Нивола, Келли АуКойн, Нэйтан Дарроу, Лили Рэйб, Майкл А. Гурджиан, Кэтрин Нардуччи

Описание: История Берни Мэдоффа — бизнесмена, который построил крупнейшую в мире финансовую пирамиду и замаскировал её под инвестиционный фонд. Мэдофф был приговорен к 150 годам тюремного заключения, а его незаконная деятельность обернулась катастрофой для всей семьи.

Доп. информация: Присутствуют вставки голосовой, видео и текстовой рекламы!

Качество: WEB-DL 1080p
Формат: MKV
Видео кодек: AVC
Аудио кодек: AC3
Видео: AVC, 1920x1080 (16:9), 23.976 fps, 4 629 Kbps (0.093 bit/pixel)
Аудио#1: AC-3, 48.0 KHz, 2 ch, 384 Kbps, CBR
Релиз от: Dusster








Общее
Уникальный идентификатор : 182166572229207574202824785668835464275 (0x890C01711DA94808BD1825811D6D5453)
Полное имя : C:\NNM\Лжец, Великий и Ужасный\Lzhec 2017 WEB-DL 1080p-LQ.mkv
Формат : Matroska
Версия формата : Version 2
Размер файла : 4,79 Гбайт
Продолжительность : 2 ч. 14 м.
Режим общего битрейта : Переменный
Общий поток : 5115 Кбит/сек
Дата кодирования : UTC 2017-05-22 10:14:24
Программа кодирования : mkvmerge v8.3.0 ('Over the Horizon') 64bit
Библиотека кодирования : libebml v1.3.1 + libmatroska v1.4.2

Видео
Идентификатор : 1
Формат : AVC
Формат/Информация : Advanced Video Codec
Профиль формата : High@L4.1
Параметр CABAC формата : Да
Параметр ReFrames формата : 4 кадра
Идентификатор кодека : V_MPEG4/ISO/AVC
Продолжительность : 2 ч. 14 м.
Вид битрейта : Переменный
Битрейт : 4729 Кбит/сек
Максимальный битрейт : 5500 Кбит/сек
Ширина : 1920 пикселей
Высота : 1080 пикселей
Соотношение сторон : 16:9
Режим частоты кадров : Постоянный
Частота кадров : 23,976 (24000/1001) кадра/сек
Стандарт вещания : Component
Цветовое пространство : YUV
Субдискретизация насыщенности : 4:2:0
Битовая глубина : 8 бит
Тип развёртки : Прогрессивная
Бит/(Пиксели*Кадры) : 0.095
Размер потока : 4,43 Гбайт (92%)
Default : Да
Forced : Нет
Цветовой диапазон : Limited
Основные цвета : BT.709
Характеристики трансфера : BT.709
Коэффициенты матрицы : BT.709

Аудио
Идентификатор : 2
Формат : AC-3
Формат/Информация : Audio Coding 3
Расширение режима : CM (complete main)
Параметр Endianness формата : Big
Идентификатор кодека : A_AC3
Продолжительность : 2 ч. 14 м.
Вид битрейта : Постоянный
Битрейт : 384 Кбит/сек
Каналы : 2 канала
Расположение каналов : Front: L R
Частота : 48,0 КГц
Частота кадров : 31,250 кадров/сек (1536 spf)
Битовая глубина : 16 бит
Метод сжатия : С потерями
Размер потока : 368 Мбайт (8%)
Default : Да
Forced : Нет

pb.wtf



Скачать Лжец, Великий и Ужасный через торрент http://pic1.kartinco.top/images/11/xypec.jpg Скачать фильм Лжец, Великий и Ужасный через торрент бесплантно в хорошем качестве Описание: История Берни Мэдоффа — бизнесмена, который построил крупнейшую в мире финансовую пирамиду и замаскировал её под инвестиционный ... 9.7 10 23
Info! Золотая раздача, скачанное не засчитывается.
Торрент: Зарегистрирован [2017-06-20 17:53] · скачан: 1 018 раз
Статус: T временная
Размер: 4.79 GB
Как cкачать? Как скачать Лжец, Великий и Ужасный через торрент | UTorrent

% Раздел Тема Автор DL S | L
T Релизы по Парсеру [Игры, Сериалы и Фильмы и другое...] [ 2.05 GB ] Лжец Великий и Ужасный / The Wizard of Lies [2017 биография HDRip] [MVO] [Line] killermax2013 Скачать
1 | 0
Фильмы (Blu-ray, BD-Remux, HDDVD) [ 32.61 GB ] Лжец Великий и Ужасный / The Wizard of Lies [2017 Биография BD Remux 1080p] MVO [Novamedia] bober100 Скачать
1 | 0
Фильмы 2017 [DVDrip, WEB-DLRip, HDrip] (DUB, MVO) [ 2.3 GB ] Лжец Великий и Ужасный / The Wizard of Lies [2017 биография BDRip-AVC] MVO [Novamedia] bober100 Скачать
1 | 0

28-11-2019 20:33  

Отключить всю рекламу на сайте

20-06-2017 18:12 Лжец, Великий и Ужасный Скачать торрент  

что то похожее на волка с уолт-стрит?pb.wtf



20-06-2017 18:20 Лжец, Великий и Ужасный Скачать торрент  

Топик был перенесен из форума Оформление раздач (Кино, Видео и ТВ) в форум Фильмы (WEB-DL 720p, 1080p)


-Lexx-pb.wtf



20-06-2017 19:04 Лжец, Великий и Ужасный Скачать торрент  

ar4i99 писал(а):

что то похожее на волка с уолт-стрит?

скорее на МММ и Сергея Мавродиpb.wtf



12-10-2017 12:33 Лжец, Великий и Ужасный Скачать торрент  

Четкий фильм автору спсpb.wtf



16-10-2017 07:23 Лжец, Великий и Ужасный Скачать торрент  

Качество ( оно печально, хнык.pb.wtf



14-12-2017 17:58 Лжец, Великий и Ужасный Скачать торрент  

    Дорогой пользователь! Огромная просьба, поблагодарите релизера, оцените раздачу и оставьте свои комментарий, если Вы скачали Лжец, Великий и Ужасный через торрент бесплатно! Внесите свою лепту в развитие PiratBit!
    Комментировать посты могут только пользователи прошедшие не сложную регистрацию
    Показать сообщения:    

    Лжец, Великий и Ужасный через торрент
    Скачать бесплатно Лжец, Великий и Ужасный
    Лжец, Великий и Ужасный скачать торрент
    Лжец, Великий и Ужасный смотреть онлайн
    Cкачать фильм Лжец, Великий и Ужасный бесплатно
    Лжец, Великий и Ужасный скачать торрент в хорошем качестве
    Лжец, Великий и Ужасный смотреть онлайн бесплатно в хорошем качестве


    Вы не можете начинать темы
    Вы не можете отвечать на сообщения
    Вы не можете редактировать свои сообщения
    Вы не можете удалять свои сообщения
    Вы не можете голосовать в опросах
    Вы не можете прикреплять файлы к сообщениям
    Вы можете скачивать файлы