Ссылка на приватное зеркало всего за 1$. Внимание количество ограничено!!!

iTunes

iTunes

iTunes

1

iTunes

iTunes

iTunes

iTunes

iTunes

30
pack

$ от Little Big

ВАЖНО

!!Акция!!

Alien_RageХит недели

RePack

Resident Evil 21

ИГРА 18+

pack

RePack

jed

!!Акция!!

Alien_Rage

RePack

fifa19

RePack

Assassins Creed: Odyssey

RePack

NEED FOR SPEED™ PAYBACK

4 сезон

9 сезон

Бесстыжие 9 сезон

Все сериалы

все сериалы на PB.wtf

RePack

FAR CRY 5
  

Конг: Остров черепа / Kong: Skull Island (Джордан Вот-Робертс) [2017, Фантастика, фэнтези, боевик, приключения, WEB-DL 720p] DUB [iTunes] pb.wtf

Конг: Остров черепа через торрент pb.wtf

Размер: 3.95 GB | Добавлен: 3 года назад | Торрент скачан:473 раза
Скачать  

20-06-2017 19:58 Конг: Остров черепа Скачать торрент  

Конг: Остров черепа / Kong: Skull Island
Год выпуска: 2017
Страна: США, Вьетнам
Жанр: Фантастика, фэнтези, боевик, приключения
Продолжительность: 01:58:21
Перевод: Дубляж [iTunes]
Субтитры: Русские, английские

Режиссер: Джордан Вот-Робертс

rating

В ролях:

Том Хиддлстон, Сэмюэл Л. Джексон, Джон Гудмен, Бри Ларсон, Тянь Цзин, Тоби Кеббелл, Джон Ортис, Кори Хоукинс, Джейсон Митчелл, Ши Уигхэм

Описание:

Успешно остановив войну во Вьетнаме, пентагоновские ястребы продолжают нагнетать демократию в самых отдаленных и малоизученных закоулках планеты. На этот раз их целью становится только что обнаруженный со спутника остров в Тихом океане, куда немедленно отправляется этнографическая экспедиция в поисках нефти и других полезных для нужд свободного мира ископаемых. На всякий случай ученых и других искателей неприятностей сопровождает внушительный армейский контингент во главе с подполковником Паккардом, имеющем обширный опыт в миротворческих операциях. Между тем, на острове обнаруживается диковинная экосистема, девственно нетронутая еще до времен эпохи исторического материализма. И когда заблудившиеся исследователи случайно роняют с боевых вертолетов несколько емкостей гуманитарного груза прямо на банановые заросли, местная фауна в лице царь-гориллы и прочих гигантских вывертов эволюции вероломно начинает геноцид мирных ученых и примкнувших к ним военных

Качество: WEB-DL 720p
Формат: MKV
Видео кодек: H.264
Аудио кодек: AC3

Видео: MPEG-4 AVC, 1280x530, 4003 Kbit/s, 23.976 fps
Аудио#1: 48 kHz, AC3, 5.1, 384 Kbps | Дублированный | iTunes | RUS |
Аудио#2: 48 kHz, AC3, 5.1, 384 Kbps | Оригинал | ENG |





General
Unique ID : 254670839741472368240140757608537787813 (0xBF97D1D2BFE90EC58AA1FE59AC140DA5)
Complete name : C:UsersbattiDesktopKong.Skull.Island.2017.WEB-DL.720p.ExKinoRay.mkv
Format : Matroska
Format version : Version 4 / Version 2
File size : 3.95 GiB
Duration : 1 h 58 min
Overall bit rate : 4 774 kb/s
Encoded date : UTC 2017-06-20 18:32:53
Writing application : mkvmerge v12.0.0 ('Trust / Lust') 64bit
Writing library : libebml v1.3.4 + libmatroska v1.4.5

Video
ID : 1
Format : AVC
Format/Info : Advanced Video Codec
Format profile : Main@L3.1
Format settings, CABAC : No
Format settings, ReFrames : 2 frames
Codec ID : V_MPEG4/ISO/AVC
Duration : 1 h 58 min
Bit rate : 4 003 kb/s
Width : 1 280 pixels
Height : 530 pixels
Display aspect ratio : 2.40:1
Frame rate mode : Constant
Frame rate : 23.976 (23976/1000) FPS
Color space : YUV
Chroma subsampling : 4:2:0
Bit depth : 8 bits
Scan type : Progressive
Bits/(Pixel*Frame) : 0.246
Stream size : 3.31 GiB (84%)
Language : English
Default : Yes
Forced : No
Color range : Limited
Color primaries : BT.709
Transfer characteristics : BT.709
Matrix coefficients : BT.709

Audio #1
ID : 2
Format : AC-3
Format/Info : Audio Coding 3
Format settings, Endianness : Big
Codec ID : A_AC3
Duration : 1 h 58 min
Bit rate mode : Constant
Bit rate : 384 kb/s
Channel(s) : 6 channels
Channel positions : Front: L C R, Side: L R, LFE
Sampling rate : 48.0 kHz
Frame rate : 31.250 FPS (1536 spf)
Bit depth : 16 bits
Compression mode : Lossy
Stream size : 325 MiB (8%)
Title : iTunes
Language : Russian
Service kind : Complete Main
Default : Yes
Forced : No

Audio #2
ID : 3
Format : AC-3
Format/Info : Audio Coding 3
Format settings, Endianness : Big
Codec ID : A_AC3
Duration : 1 h 58 min
Bit rate mode : Constant
Bit rate : 384 kb/s
Channel(s) : 6 channels
Channel positions : Front: L C R, Side: L R, LFE
Sampling rate : 48.0 kHz
Frame rate : 31.250 FPS (1536 spf)
Bit depth : 16 bits
Compression mode : Lossy
Stream size : 325 MiB (8%)
Title : Original
Language : English
Service kind : Complete Main
Default : No
Forced : No

Text #1
ID : 4
Format : UTF-8
Codec ID : S_TEXT/UTF8
Codec ID/Info : UTF-8 Plain Text
Duration : 1 h 57 min
Bit rate : 3 b/s
Count of elements : 66
Stream size : 3.31 KiB (0%)
Title : Forced
Language : Russian
Default : Yes
Forced : No

Text #2
ID : 5
Format : UTF-8
Codec ID : S_TEXT/UTF8
Codec ID/Info : UTF-8 Plain Text
Duration : 1 h 57 min
Bit rate : 76 b/s
Count of elements : 1264
Stream size : 65.3 KiB (0%)
Title : Full
Language : Russian
Default : No
Forced : No

Text #3
ID : 6
Format : UTF-8
Codec ID : S_TEXT/UTF8
Codec ID/Info : UTF-8 Plain Text
Duration : 1 h 54 min
Bit rate : 46 b/s
Count of elements : 974
Stream size : 39.0 KiB (0%)
Title : Full
Language : English
Default : No
Forced : No

Menu
00:00:00.000 : en:1
00:08:54.000 : en:2
00:19:51.000 : en:3
00:30:00.000 : en:4
00:40:00.000 : en:5
00:50:12.000 : en:6
01:00:49.000 : en:7
01:10:29.000 : en:8
01:18:05.000 : en:9
01:30:12.000 : en:10
01:39:09.000 : en:11
01:47:05.000 : en:12

pb.wtf



Скачать Конг: Остров черепа через торрент http://s010.radikal.ru/i314/1706/59/cb39614d110a.jpg Скачать фильм Конг: Остров черепа через торрент бесплантно в хорошем качестве Описание: Успешно остановив войну во Вьетнаме, пентагоновские ястребы продолжают нагнетать демократию в самых отдаленных и малоизученных ... 10 10 15
Торрент: Зарегистрирован [2017-06-20 19:58] · скачан: 473 раз
Статус: √ проверено
Размер: 3.95 GB
Как cкачать? Как скачать Конг: Остров черепа через торрент | qTorrent

% Раздел Тема Автор DL S | L
Ultra HD (UHD: 2K, 4K, 8K) — видео сверхвысокой чёткости [ 69.32 GB ] Конг: Остров черепа / Kong: Skull Island [2017 UHD BDRemux 2160p] DUB + 4xAVO sheker187 Скачать
1 | 0
Ultra HD (UHD: 2K, 4K, 8K) — видео сверхвысокой чёткости [ 14.98 GB ] Конг: Остров черепа / Kong: Skull Island [2017 UHD BDRip 2160p] DUB sheker187 Скачать
1 | 0
Ultra HD (UHD: 2K, 4K, 8K) — видео сверхвысокой чёткости [ 56.03 GB ] Конг: Остров черепа / Kong: Skull Island [2017 UHD Blu-ray EUR 2160p] - [] sheker187 Скачать
1 | 0
3D Фильмы [ 7.26 GB ] Конг: Остров черепа в 3D / Kong: Skull Island in 3D [2017 BDRip 1080p BD CEE] Анаглиф slaventi-69 Скачать
1 | 0
Фильмы 2017 [DVDrip, WEB-DLRip, HDrip] (DUB, MVO) [ 743 MB ] Конг: Остров черепа / Kong: Skull Island [2017 WEB-DLRip-AVC] bober100 Скачать
1 | 0
Ultra HD (UHD: 2K, 4K, 8K) — видео сверхвысокой чёткости [ 50.54 GB ] Конг: Остров черепа / Kong: Skull Island [2017 UHD BDRemux 2160p] DUB+AVO [] bober100 Скачать
1 | 0
Фильмы (HD 720p, 1080p) (48-60 fps) [ 6.64 GB ] Конг: Остров черепа / Kong: Skull Island [2017 BDRip 720p 60 fps от еnvy / NNNB] DUB | еnvy Скачать
7 | 0

28-11-2019 20:33  

Отключить всю рекламу на сайте

    Дорогой пользователь! Огромная просьба, поблагодарите релизера, оцените раздачу и оставьте свои комментарий, если Вы скачали Конг: Остров черепа через торрент бесплатно! Внесите свою лепту в развитие PiratBit!
    Комментировать посты могут только пользователи прошедшие не сложную регистрацию
    Показать сообщения:    

    Конг: Остров черепа через торрент
    Скачать бесплатно Конг: Остров черепа
    Конг: Остров черепа скачать торрент
    Конг: Остров черепа смотреть онлайн
    Cкачать фильм Конг: Остров черепа бесплатно
    Конг: Остров черепа скачать торрент в хорошем качестве
    Конг: Остров черепа смотреть онлайн бесплатно в хорошем качестве


    Вы не можете начинать темы
    Вы не можете отвечать на сообщения
    Вы не можете редактировать свои сообщения
    Вы не можете удалять свои сообщения
    Вы не можете голосовать в опросах
    Вы не можете прикреплять файлы к сообщениям
    Вы можете скачивать файлы