1 сезон

3 сезон

iTunes

1

iTunes

MVO

iTunes

13

1 сезон

RePack

30

Deluxe

pack

Лицензия

ВАЖНО

ИГРА 18+

pack

RePack

MK11

RePack

jed

RePack

fifa19

RePack

RDR2

RePack

NEED FOR SPEED™ PAYBACK

4 сезон

9 сезон

Бесстыжие 9 сезон

Все сериалы

все сериалы на PB.wtf

RePack

FAR CRY 5

Anonymous, добрый день, мы катастрофически не успеваем собрать деньги на оплату серверов, помогите нам пожалуйста 5,10,15р., для нас важна любая помощь . В качестве благодарности мы отключим Вам всю рекламу на сайте (укажите свой ник в строку Ваше имя)!

×
  
Magnet ссылка

Конг: Остров черепа / Kong: Skull Island (Джордан Вот-Робертс) [2017, фантастика, фэнтези, боевик, приключения, BDRip от R.G. Resident] Дубляж - [Blu-ray EUR] pb.wtf

Конг: Остров черепа через торрент pb.wtf

Размер: 1.46 GB | Добавлен: 4 года назад | Торрент скачан:292 раза
Скачать  

20-06-2017 20:03 Конг: Остров черепа Скачать торрент  

Конг: Остров черепа / Kong: Skull Island
««Пробуждение Кинг-Конга»»

Год выпуска: 2017
Страна: США
Жанр: фантастика, фэнтези, боевик, приключения

Продолжительность: 01:58:23
Перевод: Дубляж - [Лицензия Blu-ray EUR]
Субтитры: Русские (форс., вшитые)
Режиссер: Джордан Вот-Робертс
В ролях:

Том Хиддлстон (James Conrad), Сэмюэл Л. Джексон (Preston Packard), Джон Гудман (Bill Randa), Бри Ларсон (Mason Weaver), Цзин Тянь (San), Тоби Кеббелл (Jack Chapman / Kong (motion capture)), Джон Ортис (Victor Nieves), Кори Хоукинс (Houston Brooks), Джейсон Митчелл (Mills), Ши Уигхэм (Cole), Томас Манн (Slivko), Терри Нотари (Kong)
Описание:
На неизвестный остров в Тихом океане попадает команда ученых, военных и искателей приключений. Они вторгаются во владения могучего Конга и тем самым развязывают сражение между человеком и природой. Очень скоро исследовательская миссия превращается в игру на выживание, ее участники вынуждены буквально прорубать себе путь к спасению.
Рейтинг:

MPAA: PG-13 - Детям до 13 лет просмотр не желателен
Качество: BDRip
Формат: AVI
Видео: XviD, 720x304 (2.35:1), 1303 kbps, 23,976 fps, 0,248 bpp
Аудио: AC3 / 5.1 / 48 kHz / 448 kbps /

Общее
Полное имя : E:\Kong.Skull.Island.2017.BDRip.R.G.Resident.avi
Формат : AVI
Формат/Информация : Audio Video Interleave
Размер файла : 1,46 Гбайт
Продолжительность : 1 ч. 58 м.
Общий поток : 1760 Кбит/сек
Программа кодирования : VirtualDubModRus 1.5.10.2 (build 2542/release)
Библиотека кодирования : VirtualDubMod build 2542/release

Видео
Идентификатор : 0
Формат : MPEG-4 Visual
Профиль формата : Advanced Simple@L5
Параметр BVOP формата : 2
Параметр QPel формата : Нет
Параметр GMC формата : Без точки перехода
Параметр матрицы формата : Выборочная
Идентификатор кодека : XVID
Идентификатор кодека/Подсказка : XviD
Продолжительность : 1 ч. 58 м.
Битрейт : 1303 Кбит/сек
Ширина : 720 пикселей
Высота : 304 пикселя
Соотношение сторон : 2,35:1
Частота кадров : 23,976 (24000/1001) кадра/сек
Цветовое пространство : YUV
Субдискретизация насыщенности : 4:2:0
Битовая глубина : 8 бит
Тип развёртки : Прогрессивная
Метод сжатия : С потерями
Бит/(Пиксели*Кадры) : 0.248
Размер потока : 1,08 Гбайт (74%)
Библиотека кодирования : XviD 73

Аудио
Идентификатор : 1
Формат : AC-3
Формат/Информация : Audio Coding 3
Параметр Endianness формата : Big
Идентификатор кодека : 2000
Продолжительность : 1 ч. 58 м.
Вид битрейта : Постоянный
Битрейт : 448 Кбит/сек
Каналы : 6 каналов
Расположение каналов : Front: L C R, Side: L R, LFE
Частота : 48,0 КГц
Частота кадров : 31,250 кадров/сек (1536 spf)
Битовая глубина : 16 бит
Метод сжатия : С потерями
Размер потока : 379 Мбайт (25%)
Выравнивание : Разделение по промежуткам
Продолжительность промежутка : 42 мс. (1,00 видеокадр)
Время предзагрузки промежутка : 500 мс.
ServiceKind/String : Complete Main
pb.wtf



Скачать Конг: Остров черепа через торрент http://i77.fastpic.ru/big/2016/0417/a7/808a646271c761f7c7d87df3d366b3a7.png Скачать фильм Конг: Остров черепа через торрент бесплантно в хорошем качестве Описание: На неизвестный остров в Тихом океане попадает команда ученых, военных и искателей приключений. Они вторгаются во владения ... 9.9 10 19
× Info от релизера! Торрент перезалит, замена на BDRip (Лицензия Blu-ray EUR)
Info! Золотая раздача, скачанное не засчитывается.
Торрент: Зарегистрирован [2017-06-26 15:13] · скачан: 292 раз
Статус: √ проверено
Размер: 1.46 GB
Как cкачать? Как скачать Конг: Остров черепа через торрент | UTorrent

% Раздел Тема Автор DL S | L
Фильмы (HD 720p, 1080p) (48-60 fps) [ 6.64 GB ] Конг: Остров черепа / Kong: Skull Island [2017 BDRip 720p 60 fps от еnvy / NNNB] DUB | еnvy Скачать
5 | 0
Ultra HD (UHD: 2K, 4K, 8K) — видео сверхвысокой чёткости [ 69.32 GB ] Конг: Остров черепа / Kong: Skull Island [2017 UHD BDRemux 2160p] DUB + 4xAVO sheker187 Скачать
1 | 0
Ultra HD (UHD: 2K, 4K, 8K) — видео сверхвысокой чёткости [ 14.98 GB ] Конг: Остров черепа / Kong: Skull Island [2017 UHD BDRip 2160p] DUB sheker187 Скачать
2 | 0
Ultra HD (UHD: 2K, 4K, 8K) — видео сверхвысокой чёткости [ 56.03 GB ] Конг: Остров черепа / Kong: Skull Island [2017 UHD Blu-ray EUR 2160p] - [] sheker187 Скачать
1 | 0
3D Фильмы [ 7.26 GB ] Конг: Остров черепа в 3D / Kong: Skull Island in 3D [2017 BDRip 1080p BD CEE] Анаглиф slaventi-69 Скачать
1 | 0
Фильмы 2017 [DVDrip, WEB-DLRip, HDrip] (DUB, MVO) [ 743 MB ] Конг: Остров черепа / Kong: Skull Island [2017 WEB-DLRip-AVC] bober100 Скачать
1 | 0
Ultra HD (UHD: 2K, 4K, 8K) — видео сверхвысокой чёткости [ 50.54 GB ] Конг: Остров черепа / Kong: Skull Island [2017 UHD BDRemux 2160p] DUB+AVO [] bober100 Скачать
1 | 0

28-11-2019 20:33  

Отключить всю рекламу на сайте

    Дорогой пользователь! Огромная просьба, поблагодарите релизера, оцените раздачу и оставьте свои комментарий, если Вы скачали Конг: Остров черепа через торрент бесплатно! Внесите свою лепту в развитие PiratBit!
    Комментировать посты могут только пользователи прошедшие не сложную регистрацию
    Показать сообщения:    

    Конг: Остров черепа через торрент
    Скачать бесплатно Конг: Остров черепа
    Конг: Остров черепа скачать торрент
    Конг: Остров черепа смотреть онлайн
    Cкачать фильм Конг: Остров черепа бесплатно
    Конг: Остров черепа скачать торрент в хорошем качестве
    Конг: Остров черепа смотреть онлайн бесплатно в хорошем качестве


    Вы не можете начинать темы
    Вы не можете отвечать на сообщения
    Вы не можете редактировать свои сообщения
    Вы не можете удалять свои сообщения
    Вы не можете голосовать в опросах
    Вы не можете прикреплять файлы к сообщениям
    Вы можете скачивать файлы