Ссылка на приватное зеркало нашего сайта всего за 1$. Внимание количество ограничено!!!

2 сезон

iTunes

1 сезон

1

2 сезон

2 сезон

iTunes

1 сезон

RePack

30

Новинка

ВАЖНО

ИГРА 18+

pack

RePack

MK11
pack

Забери бонус

RePack

jed

!!Акция!!

Alien_Rage

RePack

fifa19

RePack

Assassins Creed: Odyssey

RePack

NEED FOR SPEED™ PAYBACK

4 сезон

9 сезон

Бесстыжие 9 сезон

Все сериалы

все сериалы на PB.wtf

RePack

FAR CRY 5
  

Рожденный убивать / Born to Kill / Сезон: 1 / Серии: 1-4 из 4 (Брюс Гудисон / Bruce Goodison) [2017, драма, триллер, HDTVRip 1080p] [MVO] (Jaskier) pb.wtf

Рожденный убивать через торрент pb.wtf

Размер: 7.12 GB | Добавлен: 3 года 5 мес. назад | Торрент скачан:83 раза
Скачать  

20-06-2017 20:40 Рожденный убивать Скачать торрент  

Рожденный убивать | Born to Kill Год выпуска: 2017
Страна: Великобритания
Жанр: Драма, триллер
Продолжительность: ~ 00:47:00
Перевод: Профессиональный (многоголосый закадровый) | Jaskier

Режиссёр: Брюс Гудисон

В ролях: Саймон Бабб, Эрл Кейв, Элизабет Коунселл, Ричард Койл, Ромола Гарай, Джеймс Грин, Карл Джонсон, Дэниэл Мейс и др.

Описание: Сэм — образцовый сын, о котором только можно мечтать. Отлично учится, во всем помогает маме, занимается спортом. Но у Сэма есть страшная тайна: ему нравится убивать, и по-настоящему счастлив он бывает только тогда, когда слышит предсмертный стон своей жертвы..

|

Качество: HDTVRip 1080p
Формат: MKV
Видео: 1920x960 (2,000) | X264 | ~5000 kbps | 25 fps
Аудио 1: AC3, 48,0 КГц, 2 ch, 192 kbps - Rus
Аудио 2: AC3, 48,0 КГц, 2 ch, 384 kbps - Eng
Субтитры: нет
Переведено и озвучено: студией Jaskier
Общее
Уникальный идентификатор                 : 211225265112979659852376293851119705278 (0x9EE8819D7B2E2E7186A4706330D75CBE)
Полное имя                               : F:\Ясы-сериалы\Born to killl. Season 1 (HDTVRip l 1080p l Jaskier)\Born.to.killl.s01e01.1080p.HDTVRip.x264-JASKiER.mkv
Формат                                   : Matroska
Версия формата                           : Version 4 / Version 2
Размер файла                             : 1,84 Гбайт
Продолжительность                        : 47 м. 34 с.
Общий поток                              : 5531 Кбит/сек
Дата кодирования                         : UTC 2017-06-20 14:12:30
Программа кодирования                    : mkvmerge v7.8.0 ('River Man') 32bit built on Apr  3 2015 12:11:22
Библиотека кодирования                   : libebml v1.3.1 + libmatroska v1.4.2

Видео
Идентификатор                            : 1
Формат                                   : AVC
Формат/Информация                        : Advanced Video Codec
Профиль формата                          : High@L4.1
Параметр CABAC формата                   : Да
Параметр ReFrames формата                : 4 кадра
Идентификатор кодека                     : V_MPEG4/ISO/AVC
Продолжительность                        : 47 м. 34 с.
Битрейт                                  : 4845 Кбит/сек
Ширина                                   : 1920 пикселей
Высота                                   : 960 пикселей
Соотношение сторон                       : 2,000
Режим частоты кадров                     : Постоянный
Частота кадров                           : 25,000 кадров/сек
Цветовое пространство                    : YUV
Субдискретизация насыщенности            : 4:2:0
Битовая глубина                          : 8 бит
Тип развёртки                            : Прогрессивная
Бит/(Пиксели*Кадры)                      : 0.105
Размер потока                            : 1,61 Гбайт (88%)
Библиотека кодирования                   : x264 core 148 r2762 90a61ec
Настройки программы                      : cabac=1 / ref=4 / deblock=1:0:0 / analyse=0x3:0x113 / me=hex / subme=8 / psy=1 / psy_rd=1.00:0.00 / mixed_ref=1 / me_range=16 / chroma_me=1 / trellis=2 / 8x8dct=1 / cqm=0 / deadzone=21,11 / fast_pskip=1 / chroma_qp_offset=-2 / threads=12 / lookahead_threads=2 / sliced_threads=0 / nr=0 / decimate=1 / interlaced=0 / bluray_compat=0 / constrained_intra=0 / bframes=3 / b_pyramid=2 / b_adapt=1 / b_bias=0 / direct=3 / weightb=1 / open_gop=0 / weightp=2 / keyint=250 / keyint_min=25 / scenecut=40 / intra_refresh=0 / rc_lookahead=50 / rc=crf / mbtree=1 / crf=18.0 / qcomp=0.60 / qpmin=0 / qpmax=69 / qpstep=4 / ip_ratio=1.40 / aq=1:1.00
Default                                  : Да
Forced                                   : Нет
Цветовой диапазон                        : Limited
Коэффициенты матрицы                     : BT.709

Аудио #1
Идентификатор                            : 2
Формат                                   : AC-3
Формат/Информация                        : Audio Coding 3
Параметр Endianness формата              : Big
Идентификатор кодека                     : A_AC3
Продолжительность                        : 47 м. 34 с.
Вид битрейта                             : Постоянный
Битрейт                                  : 192 Кбит/сек
Каналы                                   : 2 канала
Расположение каналов                     : Front: L R
Частота                                  : 48,0 КГц
Частота кадров                           : 31,250 кадров/сек (1536 spf)
Битовая глубина                          : 16 бит
Метод сжатия                             : С потерями
Размер потока                            : 65,3 Мбайт (3%)
Заголовок                                : JASKiER
Язык                                     : Russian
ServiceKind/String                       : Complete Main
Default                                  : Да
Forced                                   : Нет

Аудио #2
Идентификатор                            : 3
Формат                                   : AC-3
Формат/Информация                        : Audio Coding 3
Параметр Endianness формата              : Big
Идентификатор кодека                     : A_AC3
Продолжительность                        : 47 м. 34 с.
Вид битрейта                             : Постоянный
Битрейт                                  : 384 Кбит/сек
Каналы                                   : 2 канала
Расположение каналов                     : Front: L R
Частота                                  : 48,0 КГц
Частота кадров                           : 31,250 кадров/сек (1536 spf)
Битовая глубина                          : 16 бит
Метод сжатия                             : С потерями
Размер потока                            : 131 Мбайт (7%)
Язык                                     : English
ServiceKind/String                       : Complete Main
Default                                  : Нет
Forced                                   : Нет
pb.wtf



Скачать Рожденный убивать через торрент http://i94.fastpic.ru/big/2017/0620/83/29f5ed763af6854d3e93a1d39bb52283.png Скачать фильм Рожденный убивать через торрент бесплантно в хорошем качестве Описание: Сэм — образцовый сын, о котором только можно мечтать. Отлично учится, во всем помогает маме, занимается спортом. Но у Сэма есть ... 7.8 10 4
Торрент: Зарегистрирован [2017-06-20 20:40] · скачан: 83 раз
Статус: √ проверено
Размер: 7.12 GB
Как cкачать? Как скачать Рожденный убивать через торрент | qTorrent

% Раздел Тема Автор DL S | L
Зарубежные сериалы [ 2.22 GB ] Рожденный убивать / Born to Kill / Сезон: 1 / Серии: 1-4 из 4 [2017 HDTVRip] [MVO] killermax2013 Скачать
1 | 0


Последний раз редактировалось: killermax2013 (2017-06-21 05:22), всего редактировалось 1 раз

28-11-2019 20:33  

Отключить всю рекламу на сайте

20-06-2017 23:43 Рожденный убивать Скачать торрент  

killermax2013,
скрины замени не совпадают с кадромpb.wtf



21-06-2017 05:24 Рожденный убивать Скачать торрент  

White Smoke писал(а):

killermax2013,
скрины замени не совпадают с кадром

сделано pb.wtf



    Дорогой пользователь! Огромная просьба, поблагодарите релизера, оцените раздачу и оставьте свои комментарий, если Вы скачали Рожденный убивать через торрент бесплатно! Внесите свою лепту в развитие PiratBit!
    Комментировать посты могут только пользователи прошедшие не сложную регистрацию
    Показать сообщения:    

    Рожденный убивать через торрент
    Скачать бесплатно Рожденный убивать
    Рожденный убивать скачать торрент
    Рожденный убивать смотреть онлайн
    Cкачать фильм Рожденный убивать бесплатно
    Рожденный убивать скачать торрент в хорошем качестве
    Рожденный убивать смотреть онлайн бесплатно в хорошем качестве


    Вы не можете начинать темы
    Вы не можете отвечать на сообщения
    Вы не можете редактировать свои сообщения
    Вы не можете удалять свои сообщения
    Вы не можете голосовать в опросах
    Вы не можете прикреплять файлы к сообщениям
    Вы можете скачивать файлы