2 сезон

iTunes

MVO

1

2 сезон

iTunes

iTunes

1 сезон

RePack

30

Новинка

ВАЖНО

ИГРА 18+

pack

RePack

MK11
pack

Легкие деньги

RePack

jed

RePack

fifa19

RePack

RDR2

RePack

NEED FOR SPEED™ PAYBACK

4 сезон

9 сезон

Бесстыжие 9 сезон

Все сериалы

все сериалы на PB.wtf

RePack

FAR CRY 5

Anonymous, добрый день, мы не успеваем собрать деньги на оплату серверов за декабрь и январь, помогите нам пожалуйста в это трудное время. В качестве благодарности мы отключим Вам всю рекламу на сайте (укажите свой ник в строку Ваше имя)!

×
  
Magnet ссылка

Конг: Остров черепа / Kong: Skull Island (Джордан Вот-Робертс) [2017, Фантастика, фэнтези, боевик, WEB-DLRip-AVC] DUB [iTunes] - ExKinoRay pb.wtf

Конг: Остров черепа через торрент pb.wtf

Размер: 1.45 GB | Добавлен: 3 года 7 мес. назад | Торрент скачан:1239 раз
Скачать  

21-06-2017 00:29 Конг: Остров черепа Скачать торрент  

Информация о фильме
Название: Конг: Остров черепа
Оригинальное название: Kong: Skull Island
Год выпуска: 2017
Жанр: Фантастика, фэнтези, боевик, приключения
Страна: США, Вьетнам
Студия: Legendary Pictures, Warner Bros. Pictures
Продолжительность: 01:58:21
Перевод: Дублированный | iTunes
Режиссер: Джордан Вот-Робертс

В ролях: Том Хиддлстон, Сэмюэл Л. Джексон, Джон Гудмен, Бри Ларсон, Тянь Цзин, Тоби Кеббелл, Джон Ортис, Кори Хоукинс, Джейсон Митчелл, Ши Уигхэм

Описание: Успешно остановив войну во Вьетнаме, пентагоновские ястребы продолжают нагнетать демократию в самых отдаленных и малоизученных закоулках планеты. На этот раз их целью становится только что обнаруженный со спутника остров в Тихом океане, куда немедленно отправляется этнографическая экспедиция в поисках нефти и других полезных для нужд свободного мира ископаемых. На всякий случай ученых и других искателей неприятностей сопровождает внушительный армейский контингент во главе с подполковником Паккардом, имеющем обширный опыт в миротворческих операциях. Между тем, на острове обнаруживается диковинная экосистема, девственно нетронутая еще до времен эпохи исторического материализма. И когда заблудившиеся исследователи случайно роняют с боевых вертолетов несколько емкостей гуманитарного груза прямо на банановые заросли, местная фауна в лице царь-гориллы и прочих гигантских вывертов эволюции вероломно начинает геноцид мирных ученых и примкнувших к ним военных


rating

Файл
Формат: MKV
Качество: WEB-DLRip-AVC
Видео: MPEG-4 AVC, 720x298 (2.40:1), 1366 Kbit/s, 23.976 fps, , 0,266 bpp
Звук:
Аудио: 48 kHz, AC3, 5.1, 384 Kbps | Дублированный | iTunes | RUS
Субтитры: Русские (full, forced)

Навигация по главам: есть
General
Unique ID : 179490053025592290299458281958785428710 (0x870886DB53B4D95AAA0C89485B6C2CE6)
Complete name : D:\Kong.Skull.Island.2017.WEB-DLRip.AVC.1.45.ExKinoRay.mkv
Format : Matroska
Format version : Version 2
File size : 1.45 GiB
Duration : 1 h 58 min
Overall bit rate : 1 752 kb/s
Movie name : Kong Skull Island 2017 from ExKinoRay
Encoded date : UTC 2017-06-20 23:33:35
Writing application : mkvmerge v5.6.0 ('Kenya Kane') built on May 27 2012 16:44:04
Writing library : libebml v1.2.3 + libmatroska v1.3.0

Video
ID : 1
Format : AVC
Format/Info : Advanced Video Codec
Format profile : High@L4.1
Format settings, CABAC : Yes
Format settings, ReFrames : 10 frames
Codec ID : V_MPEG4/ISO/AVC
Duration : 1 h 58 min
Bit rate : 1 366 kb/s
Width : 720 pixels
Height : 298 pixels
Display aspect ratio : 2.40:1
Frame rate mode : Constant
Frame rate : 23.976 (24000/1001) FPS
Original frame rate : 23.976 (23976/1000) FPS
Color space : YUV
Chroma subsampling : 4:2:0
Bit depth : 8 bits
Scan type : Progressive
Bits/(Pixel*Frame) : 0.266
Stream size : 1.10 GiB (76%)
Writing library : x264 core 144 r2525 40bb568
Encoding settings : cabac=1 / ref=10 / deblock=1:-2:-2 / analyse=0x3:0x113 / me=umh / subme=10 / psy=1 / psy_rd=1.00:0.04 / mixed_ref=1 / me_range=32 / chroma_me=1 / trellis=2 / 8x8dct=1 / cqm=0 / deadzone=21,11 / fast_pskip=1 / chroma_qp_offset=-3 / threads=12 / lookahead_threads=2 / sliced_threads=0 / nr=0 / decimate=0 / interlaced=0 / bluray_compat=0 / constrained_intra=0 / bframes=10 / b_pyramid=2 / b_adapt=2 / b_bias=0 / direct=3 / weightb=1 / open_gop=0 / weightp=2 / keyint=240 / keyint_min=23 / scenecut=40 / intra_refresh=0 / rc_lookahead=40 / rc=2pass / mbtree=0 / bitrate=1366 / ratetol=1.0 / qcomp=0.60 / qpmin=0 / qpmax=51 / qpstep=4 / cplxblur=20.0 / qblur=0.5 / vbv_maxrate=50000 / vbv_bufsize=62500 / nal_hrd=none / filler=0 / ip_ratio=1.40 / pb_ratio=1.30 / aq=1:1.00
Default : Yes
Forced : No
Color range : Limited
Color primaries : BT.709
Transfer characteristics : BT.709
Matrix coefficients : BT.709

Audio
ID : 2
Format : AC-3
Format/Info : Audio Coding 3
Mode extension : CM (complete main)
Format settings, Endianness : Big
Codec ID : A_AC3
Duration : 1 h 58 min
Bit rate mode : Constant
Bit rate : 384 kb/s
Channel(s) : 6 channels
Channel positions : Front: L C R, Side: L R, LFE
Sampling rate : 48.0 kHz
Frame rate : 31.250 FPS (1536 spf)
Compression mode : Lossy
Stream size : 325 MiB (22%)
Title : iTunes
Language : Russian
Default : Yes
Forced : No

Text #1
ID : 3
Format : UTF-8
Codec ID : S_TEXT/UTF8
Codec ID/Info : UTF-8 Plain Text
Title : Forced
Language : Russian
Default : Yes
Forced : No

Text #2
ID : 4
Format : UTF-8
Codec ID : S_TEXT/UTF8
Codec ID/Info : UTF-8 Plain Text
Title : Full
Language : Russian
Default : No
Forced : No

Menu
00:00:00.000 : en:1
00:08:54.000 : en:2
00:19:51.000 : en:3
00:30:00.000 : en:4
00:40:00.000 : en:5
00:50:12.000 : en:6
01:00:49.000 : en:7
01:10:29.000 : en:8
01:18:05.000 : en:9
01:30:12.000 : en:10
01:39:09.000 : en:11
01:47:05.000 : en:12
Релиз от:

Автор релиза: pb.wtf



Скачать Конг: Остров черепа через торрент http://s010.radikal.ru/i314/1706/59/cb39614d110a.jpg Скачать фильм Конг: Остров черепа через торрент бесплантно в хорошем качестве Описание: Успешно остановив войну во Вьетнаме, пентагоновские ястребы продолжают нагнетать демократию в самых отдаленных и малоизученных ... 9.7 10 30
Info! Золотая раздача, скачанное не засчитывается.
Торрент: Зарегистрирован [2017-06-21 00:29] · скачан: 1 239 раз
Статус: √ проверено
Размер: 1.45 GB
Как cкачать? Как скачать Конг: Остров черепа через торрент | UTorrent

% Раздел Тема Автор DL S | L
Фильмы 2017 [DVDrip, WEB-DLRip, HDrip] (DUB, MVO) [ 2.88 GB ] Конг: Остров черепа / Kong: Skull Island [2017 HDRip-AVC] DUB [] - ExKinoRay Enigma2010 Скачать
1 | 0

28-11-2019 20:33  

Отключить всю рекламу на сайте

21-06-2017 18:35 Конг: Остров черепа Скачать торрент  

бредятина pb.wtf



22-06-2017 04:01 Конг: Остров черепа Скачать торрент  

Аlексей писал(а):

бредятина

Уважаемый, бредятина это фильм "Фантастическая четверка"! Будьте уважительнее к фанатам фильма!pb.wtf



22-06-2017 13:00 Конг: Остров черепа Скачать торрент  

За описание браво За труды спасибо А как фильм посмотрим pb.wtf



22-06-2017 16:40 Конг: Остров черепа Скачать торрент  

Да кто там описания строчит-то?))pb.wtf



    Дорогой пользователь! Огромная просьба, поблагодарите релизера, оцените раздачу и оставьте свои комментарий, если Вы скачали Конг: Остров черепа через торрент бесплатно! Внесите свою лепту в развитие PiratBit!
    Комментировать посты могут только пользователи прошедшие не сложную регистрацию
    Показать сообщения:    

    Конг: Остров черепа через торрент
    Скачать бесплатно Конг: Остров черепа
    Конг: Остров черепа скачать торрент
    Конг: Остров черепа смотреть онлайн
    Cкачать фильм Конг: Остров черепа бесплатно
    Конг: Остров черепа скачать торрент в хорошем качестве
    Конг: Остров черепа смотреть онлайн бесплатно в хорошем качестве


    Вы не можете начинать темы
    Вы не можете отвечать на сообщения
    Вы не можете редактировать свои сообщения
    Вы не можете удалять свои сообщения
    Вы не можете голосовать в опросах
    Вы не можете прикреплять файлы к сообщениям
    Вы можете скачивать файлы