2 сезон

iTunes

1 сезон

1

iTunes

iTunes

iTunes

1 сезон

RePack

30

ИГРА 18+

pack

ВАЖНО

!!Акция!!

Alien_RageХит недели

RePack

MK11
pack

Забери бонус

RePack

jed

!!Акция!!

Alien_Rage

RePack

fifa19

RePack

Assassins Creed: Odyssey

RePack

NEED FOR SPEED™ PAYBACK

4 сезон

9 сезон

Бесстыжие 9 сезон

Все сериалы

все сериалы на PB.wtf

RePack

FAR CRY 5
  

Абсолютно точно / The Sure Thing (Роб Райнер) [1985, мелодрама, комедия, BDRip 720p by msltel] DVO, AVO pb.wtf

Абсолютно точно через торрент pb.wtf

Размер: 4.25 GB | Добавлен: 3 года 4 мес. назад | Торрент скачан:39 раз
Скачать  

21-06-2017 07:44 Абсолютно точно Скачать торрент  

Название: Абсолютно точно
Оригинальное название: The Sure Thing
Год выпуска: 1985
Страна: США
Жанр: мелодрама, комедия
Продолжительность: 01:31:07
Перевод: профессиональный двухголосый, авторский

Режиссёр: Роб Райнер

В ролях: Джон Кьюсак, Дафна Зунига, Энтони Эдвардс, Бойд Гейнс, Тим Роббинс, Лиза Джейн Перски, Вивека Линдфорс, Николлетт Шеридан, Марсия Кристи, Роберт Энтони Маркуччи, Сара Бакстон, Джошуа Кэдмен, Кристал Ричардс, Джон Путч, Стив Пинк, Трэйси Рейнер, Мартин Дж. Лэйтон, Эми Резник

Описание: Гиб - симпатичный умный интересный парень с хорошим чувством юмора, но в любви ему не везёт. Почему-то девушки, которые учатся с Гибом на первом курсе колледжа, не воспринимают парня всерьёз. На зимние каникулы Гиб собирается поехать к своему другу в Калифорнию, наслушавшись рассказов приятеля о красотке в бикини, так и поджидающей Гиба на берегу. «Она то, что тебе надо!» — Гибу нравится перспектива встречи с такой девушкой, и он отправляется в путь. Неожиданной попутчицей оказывается немного занудная сокурсница-отличница Элисон, которая едет в том же направлении, чтобы повидаться со своим, не очень приятным, женихом. Элисон и Гиб — две противоположности, которые, как это часто бывает, в пути начинают притягиваться с самыми романтическими последствиями! Дождётся ли красотка в бикини Гиба? Дождётся ли жених свою Элисон?...



Качество: BDRip 720p
Формат: MKV
Видео: MPEG-4 AVC, 5840 Kбит/с, 1280x720
Аудио 1: русский, AC3, 192 kbps, 2 ch [профессиональный двухголосый, Elrom]
Аудио 2: русский, AC3, 192 kbps, 2 ch [авторский, Антон Алексеев]
Аудио 3: английский, AC3, 448 kbps, 6 ch, 48 kHz [оригинал]
Субтитры 1: русские
Субтитры 2: английские
Имеются неименованные главы/чаптеры.
Общее
Уникальный идентификатор : 241920164668418607900682147380018521628 (0xB600210176F7D3CBAC5E60302967A61C)
Полное имя : D:\Video\Абсолютно точно.1985.BDRip.720p by msltel.mkv
Формат : Matroska
Версия формата : Version 4 / Version 2
Размер файла : 4,25 Гбайт
Продолжительность : 1 ч. 31 м.
Общий поток : 6675 Кбит/сек
Название фильма : Rip by msltel
Дата кодирования : UTC 2017-06-21 03:12:19
Программа кодирования : mkvmerge v8.2.0 ('World of Adventure') 64bit
Библиотека кодирования : libebml v1.3.1 + libmatroska v1.4.2

Видео
Идентификатор : 1
Формат : AVC
Формат/Информация : Advanced Video Codec
Профиль формата : High@L4.1
Параметр CABAC формата : Да
Параметр ReFrames формата : 9 кадров
Идентификатор кодека : V_MPEG4/ISO/AVC
Продолжительность : 1 ч. 31 м.
Битрейт : 5840 Кбит/сек
Ширина : 1280 пикселей
Высота : 720 пикселей
Соотношение сторон : 16:9
Режим частоты кадров : Постоянный
Частота кадров : 25,000 кадров/сек
Цветовое пространство : YUV
Субдискретизация насыщенности : 4:2:0
Битовая глубина : 8 бит
Тип развёртки : Прогрессивная
Бит/(Пиксели*Кадры) : 0.253
Размер потока : 3,72 Гбайт (87%)
Библиотека кодирования : x264 core 146 r2538 121396c
Настройки программы : cabac=1 / ref=9 / deblock=1:-3:-2 / analyse=0x3:0x113 / me=umh / subme=11 / psy=1 / psy_rd=1.00:0.15 / mixed_ref=1 / me_range=32 / chroma_me=1 / trellis=2 / 8x8dct=1 / cqm=0 / deadzone=21,11 / fast_pskip=0 / chroma_qp_offset=-3 / threads=6 / lookahead_threads=1 / sliced_threads=0 / nr=0 / decimate=1 / interlaced=0 / bluray_compat=0 / constrained_intra=0 / bframes=8 / b_pyramid=2 / b_adapt=2 / b_bias=0 / direct=1 / weightb=1 / open_gop=0 / weightp=2 / keyint=250 / keyint_min=25 / scenecut=40 / intra_refresh=0 / rc_lookahead=40 / rc=crf / mbtree=0 / crf=18.0 / qcomp=0.60 / qpmin=0 / qpmax=69 / qpstep=4 / vbv_maxrate=62500 / vbv_bufsize=78125 / crf_max=0.0 / nal_hrd=none / filler=0 / ip_ratio=1.40 / pb_ratio=1.30 / aq=1:1.00
Язык : English
Default : Да
Forced : Нет

Аудио #1
Идентификатор : 2
Формат : AC-3
Формат/Информация : Audio Coding 3
Параметр Endianness формата : Big
Идентификатор кодека : A_AC3
Продолжительность : 1 ч. 31 м.
Вид битрейта : Постоянный
Битрейт : 192 Кбит/сек
Каналы : 2 канала
Расположение каналов : Front: L R
Частота : 48,0 КГц
Частота кадров : 31,250 кадров/сек (1536 spf)
Битовая глубина : 16 бит
Метод сжатия : С потерями
Размер потока : 125 Мбайт (3%)
Заголовок : DVO (Elrom)
Язык : Russian
ServiceKind/String : Complete Main
Default : Да
Forced : Нет

Аудио #2
Идентификатор : 3
Формат : AC-3
Формат/Информация : Audio Coding 3
Параметр Endianness формата : Big
Идентификатор кодека : A_AC3
Продолжительность : 1 ч. 31 м.
Вид битрейта : Постоянный
Битрейт : 192 Кбит/сек
Каналы : 2 канала
Расположение каналов : Front: L R
Частота : 48,0 КГц
Частота кадров : 31,250 кадров/сек (1536 spf)
Битовая глубина : 16 бит
Метод сжатия : С потерями
Размер потока : 125 Мбайт (3%)
Заголовок : AVO (Антон Алексеев)
Язык : Russian
ServiceKind/String : Complete Main
Default : Нет
Forced : Нет

Аудио #3
Идентификатор : 4
Формат : AC-3
Формат/Информация : Audio Coding 3
Параметр Endianness формата : Big
Идентификатор кодека : A_AC3
Продолжительность : 1 ч. 31 м.
Вид битрейта : Постоянный
Битрейт : 448 Кбит/сек
Каналы : 6 каналов
Расположение каналов : Front: L C R, Side: L R, LFE
Частота : 48,0 КГц
Частота кадров : 31,250 кадров/сек (1536 spf)
Битовая глубина : 16 бит
Метод сжатия : С потерями
Размер потока : 292 Мбайт (7%)
Заголовок : original
Язык : English
ServiceKind/String : Complete Main
Default : Нет
Forced : Нет

Текст #1
Идентификатор : 5
Формат : UTF-8
Идентификатор кодека : S_TEXT/UTF8
Идентификатор кодека/Информация : UTF-8 Plain Text
Продолжительность : 1 ч. 25 м.
Битрейт : 100 бит/сек
ElementCount : 1263
Размер потока : 63,1 Кбайт (0%)
Заголовок : русские
Язык : Russian
Default : Нет
Forced : Нет

Текст #2
Идентификатор : 6
Формат : UTF-8
Идентификатор кодека : S_TEXT/UTF8
Идентификатор кодека/Информация : UTF-8 Plain Text
Продолжительность : 1 ч. 25 м.
Битрейт : 65 бит/сек
ElementCount : 1110
Размер потока : 41,0 Кбайт (0%)
Заголовок : английские
Язык : English
Default : Нет
Forced : Нет

Меню
00:00:00.000 : :Chapter 01
00:08:50.440 : :Chapter 02
00:18:10.880 : :Chapter 03
00:27:25.880 : :Chapter 04
00:37:27.079 : :Chapter 05
00:47:22.360 : :Chapter 06
00:55:45.920 : :Chapter 07
01:04:34.000 : :Chapter 08
01:12:52.760 : :Chapter 09
01:21:36.399 : :Chapter 10
01:28:13.198 : :Chapter 11
01:31:07.399 : :Chapter 12
pb.wtf



Скачать Абсолютно точно через торрент http://s018.radikal.ru/i500/1706/cc/40da6f0a3d7a.jpg Скачать фильм Абсолютно точно через торрент бесплантно в хорошем качестве Описание: Гиб - симпатичный умный интересный парень с хорошим чувством юмора, но в любви ему не везёт. Почему-то девушки, которые учатся с ... 10 10 2
Info! Золотая раздача, скачанное не засчитывается.
Торрент: Зарегистрирован [2017-06-21 07:44] · скачан: 39 раз
Статус: √ проверено
Размер: 4.25 GB
Как cкачать? Как скачать Абсолютно точно через торрент | qTorrent

% Раздел Тема Автор DL S | L
Фильмы [HD 720p, 1080p] (Звук Cam, VO, DVO) [ 5.98 GB ] Абсолютно точно / Верняк / The Sure Thing [1985 BDRip 720p] [GER Transfer] DVO AVO - KORSAR lesnik125 Скачать
1 | 0
Фильмы [HD 720p, 1080p] (Хороший звук DUB, MVO) [ 11.45 GB ] Абсолютно точно / The Sure Thing [1985 BDRip 1080p by msltel] DVO AVO msltel Скачать
1 | 0

28-11-2019 20:33  

Отключить всю рекламу на сайте

    Дорогой пользователь! Огромная просьба, поблагодарите релизера, оцените раздачу и оставьте свои комментарий, если Вы скачали Абсолютно точно через торрент бесплатно! Внесите свою лепту в развитие PiratBit!
    Комментировать посты могут только пользователи прошедшие не сложную регистрацию
    Показать сообщения:    

    Абсолютно точно через торрент
    Скачать бесплатно Абсолютно точно
    Абсолютно точно скачать торрент
    Абсолютно точно смотреть онлайн
    Cкачать фильм Абсолютно точно бесплатно
    Абсолютно точно скачать торрент в хорошем качестве
    Абсолютно точно смотреть онлайн бесплатно в хорошем качестве


    Вы не можете начинать темы
    Вы не можете отвечать на сообщения
    Вы не можете редактировать свои сообщения
    Вы не можете удалять свои сообщения
    Вы не можете голосовать в опросах
    Вы не можете прикреплять файлы к сообщениям
    Вы можете скачивать файлы