Ссылка на приватное зеркало нашего сайта всего за 1$. Внимание количество ограничено!!!

2 сезон

iTunes

1 сезон

1

iTunes

iTunes

iTunes

1 сезон

RePack

30

ИГРА 18+

pack

ВАЖНО

!!Акция!!

Alien_RageХит недели

RePack

MK11
pack

Забери бонус

RePack

jed

!!Акция!!

Alien_Rage

RePack

fifa19

RePack

Assassins Creed: Odyssey

RePack

NEED FOR SPEED™ PAYBACK

4 сезон

9 сезон

Бесстыжие 9 сезон

Все сериалы

все сериалы на PB.wtf

RePack

FAR CRY 5
  

Жена смотрителя зоопарка / The Zookeeper's Wife (Ники Каро) [2017, Драма, военный, биография, реальные события, BDRip 720p] [DUB] [iTunes] pb.wtf

Жена смотрителя зоопарка через торрент pb.wtf

Размер: 4.71 GB | Добавлен: 3 года 4 мес. назад | Торрент скачан:102 раза
Скачать  

21-06-2017 09:13 Жена смотрителя зоопарка Скачать торрент  

Жена смотрителя зоопарка / The Zookeeper's Wife
Год выпуска: 2017
Страна: Чехия, Великобритания, США
Жанр: Драма, военный, биография, реальные события
Продолжительность: 02:06:27
Перевод: Дубляж [Tunes]
Субтитры: английские

Режиссер: Ники Каро

rating

В ролях:

Джессика Честейн, Йохан Хелденберг, Даниэль Брюль, Тимоти Редфорд, Эфрат Дор, Иддо Голдберг, Шира Хаас, Майкл МакЭлхаттон, Вэл Малоку, Марта Иссова

Описание:

Реальная история отважного подвига смотрителей Варшавского зоопарка Яна и Антонины Жабинских, давших убежище и сохранивших жизнь более, чем 300 евреям во время II Мировой войны. Ежедневный риск и опасность осложняются для Жабинских взаимоотношениями с бывшим другом семьи, а ныне высокопоставленным нацистским чиновником Лутцем Хеком, влюбленным в Антонину

Качество: BDRip 720p
Формат: MKV
Видео кодек: H.264
Аудио кодек: AC3/DTS

Видео: MPEG-4 AVC, 1280x534, 3440 Кbit/s, 23.976 fps
Аудио#1: 48 kHz, AC3, 5.1, 384 Kbps | Дублированный | iTunes | RUS |
Аудио#2: 48 kHz, DTS, 5.1, 1510 Kbps | Оригинал| ENG |
скриншот   скриншот   скриншот   скриншот   скриншот  

General
Unique ID : 222567946686981547504696118493585832960 (0xA77106FE58C700C1A619C8074D837C00)
Complete name : F:VideoThe.Zookeepers.Wife.2017.BDRip.720p.ExKinoRay.mkv
Format : Matroska
Format version : Version 4 / Version 2
File size : 4.71 GiB
Duration : 2 h 6 min
Overall bit rate : 5 331 kb/s
Encoded date : UTC 2017-06-21 06:00:49
Writing application : mkvmerge v12.0.0 ('Trust / Lust') 64bit
Writing library : libebml v1.3.4 + libmatroska v1.4.5

Video
ID : 1
Format : AVC
Format/Info : Advanced Video Codec
Format profile : High@L4.1
Format settings, CABAC : Yes
Format settings, ReFrames : 12 frames
Codec ID : V_MPEG4/ISO/AVC
Duration : 2 h 6 min
Bit rate : 3 440 kb/s
Width : 1 280 pixels
Height : 534 pixels
Display aspect ratio : 2.40:1
Frame rate mode : Constant
Frame rate : 23.976 (24000/1001) FPS
Color space : YUV
Chroma subsampling : 4:2:0
Bit depth : 8 bits
Scan type : Progressive
Bits/(Pixel*Frame) : 0.210
Stream size : 3.03 GiB (64%)
Writing library : x264 core 148 r2597 e86f3a1
Encoding settings : cabac=1 / ref=12 / deblock=1:0:0 / analyse=0x3:0x113 / me=umh / subme=10 / psy=1 / psy_rd=1.05:0.10 / mixed_ref=1 / me_range=32 / chroma_me=1 / trellis=2 / 8x8dct=1 / cqm=0 / deadzone=21,11 / fast_pskip=0 / chroma_qp_offset=-2 / threads=12 / lookahead_threads=1 / sliced_threads=0 / nr=0 / decimate=1 / interlaced=0 / bluray_compat=0 / constrained_intra=0 / bframes=6 / b_pyramid=2 / b_adapt=2 / b_bias=0 / direct=3 / weightb=1 / open_gop=0 / weightp=2 / keyint=250 / keyint_min=23 / scenecut=40 / intra_refresh=0 / rc=2pass / mbtree=0 / bitrate=3440 / ratetol=1.0 / qcomp=0.70 / qpmin=0 / qpmax=69 / qpstep=4 / cplxblur=20.0 / qblur=0.5 / ip_ratio=1.40 / pb_ratio=1.30 / aq=2:1.00
Language : English
Default : Yes
Forced : No

Audio #1
ID : 2
Format : AC-3
Format/Info : Audio Coding 3
Format settings, Endianness : Big
Codec ID : A_AC3
Duration : 2 h 6 min
Bit rate mode : Constant
Bit rate : 384 kb/s
Channel(s) : 6 channels
Channel positions : Front: L C R, Side: L R, LFE
Sampling rate : 48.0 kHz
Frame rate : 31.250 FPS (1536 spf)
Bit depth : 16 bits
Compression mode : Lossy
Stream size : 347 MiB (7%)
Title : iTunes
Language : Russian
Service kind : Complete Main
Default : Yes
Forced : No

Audio #2
ID : 3
Format : DTS
Format/Info : Digital Theater Systems
Mode : 16
Format settings, Endianness : Big
Codec ID : A_DTS
Duration : 2 h 6 min
Bit rate mode : Constant
Bit rate : 1 509 kb/s
Channel(s) : 6 channels
Channel positions : Front: L C R, Side: L R, LFE
Sampling rate : 48.0 kHz
Frame rate : 93.750 FPS (512 spf)
Bit depth : 24 bits
Compression mode : Lossy
Stream size : 1.33 GiB (28%)
Title : Original
Language : English
Default : No
Forced : No

Text #1
ID : 4
Format : UTF-8
Codec ID : S_TEXT/UTF8
Codec ID/Info : UTF-8 Plain Text
Duration : 1 h 58 min
Bit rate : 36 b/s
Count of elements : 1158
Stream size : 31.6 KiB (0%)
Title : SDH
Language : English
Default : No
Forced : No

Text #2
ID : 5
Format : UTF-8
Codec ID : S_TEXT/UTF8
Codec ID/Info : UTF-8 Plain Text
Duration : 2 h 0 min
Bit rate : 47 b/s
Count of elements : 1160
Stream size : 41.5 KiB (0%)
Title : SDH (Colored)
Language : English
Default : No
Forced : No

Menu
00:00:00.000 : en:00:00:00.000
00:04:55.336 : en:00:04:55.336
00:14:23.112 : en:00:14:23.112
00:21:16.942 : en:00:21:16.942
00:29:50.246 : en:00:29:50.246
00:35:39.679 : en:00:35:39.679
00:40:25.589 : en:00:40:25.589
00:49:46.191 : en:00:49:46.191
00:54:01.196 : en:00:54:01.196
01:00:25.663 : en:01:00:25.663
01:06:21.686 : en:01:06:21.686
01:11:48.929 : en:01:11:48.929
01:19:45.864 : en:01:19:45.864
01:25:10.647 : en:01:25:10.647
01:30:12.448 : en:01:30:12.448
01:36:42.421 : en:01:36:42.421
01:39:32.925 : en:01:39:32.925
01:46:18.372 : en:01:46:18.372
01:55:17.160 : en:01:55:17.160
02:01:44.297 : en:02:01:44.297

pb.wtf



Скачать Жена смотрителя зоопарка через торрент http://s018.radikal.ru/i516/1706/70/abb925c07cc3.jpg Скачать фильм Жена смотрителя зоопарка через торрент бесплантно в хорошем качестве Описание: Реальная история отважного подвига смотрителей Варшавского зоопарка Яна и Антонины Жабинских, давших убежище и сохранивших жизнь ... 10 10 7
Info! Серебряная раздача, засчитывается только 50% скачанного.
Торрент: Зарегистрирован [2017-06-21 09:13] · скачан: 102 раз
Статус: √ проверено
Размер: 4.71 GB
Как cкачать? Как скачать Жена смотрителя зоопарка через торрент | qTorrent

28-11-2019 20:33  

Отключить всю рекламу на сайте

    Дорогой пользователь! Огромная просьба, поблагодарите релизера, оцените раздачу и оставьте свои комментарий, если Вы скачали Жена смотрителя зоопарка через торрент бесплатно! Внесите свою лепту в развитие PiratBit!
    Комментировать посты могут только пользователи прошедшие не сложную регистрацию
    Показать сообщения:    

    Жена смотрителя зоопарка через торрент
    Скачать бесплатно Жена смотрителя зоопарка
    Жена смотрителя зоопарка скачать торрент
    Жена смотрителя зоопарка смотреть онлайн
    Cкачать фильм Жена смотрителя зоопарка бесплатно
    Жена смотрителя зоопарка скачать торрент в хорошем качестве
    Жена смотрителя зоопарка смотреть онлайн бесплатно в хорошем качестве


    Вы не можете начинать темы
    Вы не можете отвечать на сообщения
    Вы не можете редактировать свои сообщения
    Вы не можете удалять свои сообщения
    Вы не можете голосовать в опросах
    Вы не можете прикреплять файлы к сообщениям
    Вы можете скачивать файлы