Ссылка на приватное зеркало нашего сайта всего за 1$. Внимание количество ограничено!!!

2 сезон

iTunes

1 сезон

1

iTunes

iTunes

iTunes

1 сезон

RePack

30

ИГРА 18+

pack

ВАЖНО

!!Акция!!

Alien_RageХит недели

RePack

MK11
pack

Забери бонус

RePack

jed

!!Акция!!

Alien_Rage

RePack

fifa19

RePack

Assassins Creed: Odyssey

RePack

NEED FOR SPEED™ PAYBACK

4 сезон

9 сезон

Бесстыжие 9 сезон

Все сериалы

все сериалы на PB.wtf

RePack

FAR CRY 5
  

Человек-мотылек / The Mothman Prophecies (Марк Пеллингтон) [2001, ужасы, триллер, драма, BDRip 1080p] DUB, MVO (Rus, Ukr), AVO pb.wtf

Человек-мотылек через торрент pb.wtf

Размер: 10.45 GB | Добавлен: 3 года 4 мес. назад | Торрент скачан:70 раз
Скачать  

21-06-2017 11:16 Человек-мотылек Скачать торрент  

Человек-мотылек / The Mothman Prophecies
««Based on true events»»

Год выпуска: 2001
Страна: США
Жанр: ужасы, триллер, драма, детектив

Продолжительность: 01:59:11
Перевод: Дубляж; Профессиональный многоголосый; Авторский одноголосый [Ю.Живов]
Субтитры: русские, английские
Режиссер: Марк Пеллингтон
В ролях:

Ричард Гир (John Klein), Лора Линни (Connie Mills), Уилл Пэттон (Gordon Smallwood), Дэвид Эйгенберг (Ed Fleischman), Дебра Мессинг (Mary Klein), Люсинда Дженни (Denise Smallwood), Несбитт Блэйсделл (Chief Josh Jarrett), Алан Бейтс (Alexander Leek), Боб Трэйси (Cyrus Bills), Рон Эмануэл (Washington Post Reporter), Том Стовяк (Real Estate Agent), Ивонн Эриксон (Dr. McElroy)
Описание:
Спустя два года после трагической гибели жены, журналист Джон Клайн оказывается в маленьком городке в Западной Вирджинии. Удивительные рассказы местных жителей, видевших странное существо, являющееся людям в сумраке ночи, и становящееся предвестником чудовищных трагедий, похожее на гигантского человека-мотылька, вынуждают его начать собственное расследование, которое даёт совершенно неожиданные результаты...
Рейтинг:

MPAA: PG-13 - Детям до 13 лет просмотр не желателен
Качество: BDRip 1080p
Формат: MKV
Видео: AVC, 1920x816 (2.35:1), 10248 kbps, 23,976 fps, 0,273 bpp
Аудио №1: русский / AC3 / 5.1 / 48 kHz / 448 kbps / |Дубляж, R5|
Аудио №2: русский / AC3 / 2.0 / 48 kHz / 192 kbps / |MVO, НТВ+|
Аудио №3: украинский / AC3 / 5.1 / 48 kHz / 384 kbps / |MVO|
Аудио №4: русский / AC3 / 5.1 / 48 kHz / 640 kbps / |AVO, Ю.Живов|
Аудио №5: английский / AC3 / 5.1 / 48 kHz / 640 kbps /
Навигация по главам: есть
Релиз от:
General
Unique ID : 180018564531458250676003812189537433170 (0x876E507C5DB06091B238B64C3981F652)
Complete name : E:\The.Mothman.Prophecies.2002.х264.BDRip.1080р.mkv
Format : Matroska
Format version : Version 4 / Version 2
File size : 10.4 GiB
Duration : 1 h 59 min
Overall bit rate : 12.5 Mb/s
Movie name : ?WIDDER?
Encoded date : UTC 2014-02-23 11:18:33
Writing application : mkvmerge v6.0.0 ('Coming Up For Air') built on Jan 20 2013 09:52:00
Writing library : libebml v1.3.0 + libmatroska v1.4.0

Video
ID : 1
Format : AVC
Format/Info : Advanced Video Codec
Format profile : High@L4.1
Format settings, CABAC : Yes
Format settings, ReFrames : 5 frames
Codec ID : V_MPEG4/ISO/AVC
Duration : 1 h 59 min
Bit rate : 10.2 Mb/s
Width : 1 920 pixels
Height : 816 pixels
Display aspect ratio : 2.35:1
Frame rate mode : Constant
Frame rate : 23.976 (24000/1001) FPS
Color space : YUV
Chroma subsampling : 4:2:0
Bit depth : 8 bits
Scan type : Progressive
Bits/(Pixel*Frame) : 0.273
Stream size : 8.32 GiB (80%)
Title : The Mothman Prophecies (2002)
Writing library : x264 core 140 r2377 1ca7bb9
Encoding settings : cabac=1 / ref=5 / deblock=1:-3:-3 / analyse=0x3:0x133 / me=umh / subme=11 / psy=1 / psy_rd=1.00:0.00 / mixed_ref=1 / me_range=64 / chroma_me=1 / trellis=2 / 8x8dct=1 / cqm=0 / deadzone=21,11 / fast_pskip=0 / chroma_qp_offset=-2 / threads=12 / lookahead_threads=2 / sliced_threads=0 / nr=0 / decimate=1 / interlaced=0 / bluray_compat=0 / constrained_intra=0 / bframes=8 / b_pyramid=2 / b_adapt=2 / b_bias=0 / direct=3 / weightb=1 / open_gop=0 / weightp=2 / keyint=240 / keyint_min=23 / scenecut=40 / intra_refresh=0 / rc_lookahead=60 / rc=2pass / mbtree=0 / bitrate=10248 / ratetol=1.0 / qcomp=0.60 / qpmin=0 / qpmax=69 / qpstep=4 / cplxblur=20.0 / qblur=0.5 / vbv_maxrate=50000 / vbv_bufsize=62500 / nal_hrd=none / filler=0 / ip_ratio=1.40 / pb_ratio=1.30 / aq=1:0.80
Language : English
Default : Yes
Forced : No

Audio #1
ID : 2
Format : AC-3
Format/Info : Audio Coding 3
Mode extension : CM (complete main)
Format settings, Endianness : Big
Codec ID : A_AC3
Duration : 1 h 59 min
Bit rate mode : Constant
Bit rate : 448 kb/s
Channel(s) : 6 channels
Channel positions : Front: L C R, Side: L R, LFE
Sampling rate : 48.0 kHz
Frame rate : 31.250 FPS (1536 spf)
Compression mode : Lossy
Stream size : 382 MiB (4%)
Title : AC3, 448 Kbps (6 ch) Дублированный (R5)
Language : Russian
Default : Yes
Forced : No

Audio #2
ID : 3
Format : AC-3
Format/Info : Audio Coding 3
Mode extension : CM (complete main)
Format settings, Endianness : Big
Codec ID : A_AC3
Duration : 1 h 59 min
Bit rate mode : Constant
Bit rate : 192 kb/s
Channel(s) : 2 channels
Channel positions : Front: L R
Sampling rate : 48.0 kHz
Frame rate : 31.250 FPS (1536 spf)
Compression mode : Lossy
Stream size : 164 MiB (2%)
Title : AC3, 192 Kbps (2 ch) Профессиональный многоголосый (НТВ+)
Language : Russian
Default : No
Forced : No

Audio #3
ID : 4
Format : AC-3
Format/Info : Audio Coding 3
Mode extension : CM (complete main)
Format settings, Endianness : Big
Codec ID : A_AC3
Duration : 1 h 59 min
Bit rate mode : Constant
Bit rate : 384 kb/s
Channel(s) : 6 channels
Channel positions : Front: L C R, Side: L R, LFE
Sampling rate : 48.0 kHz
Frame rate : 31.250 FPS (1536 spf)
Compression mode : Lossy
Stream size : 327 MiB (3%)
Title : AC3, 384 Kbps (6 ch) Профессиональный многоголосый
Language : Ukrainian
Default : No
Forced : No

Audio #4
ID : 5
Format : AC-3
Format/Info : Audio Coding 3
Mode extension : CM (complete main)
Format settings, Endianness : Big
Codec ID : A_AC3
Duration : 1 h 59 min
Bit rate mode : Constant
Bit rate : 640 kb/s
Channel(s) : 6 channels
Channel positions : Front: L C R, Side: L R, LFE
Sampling rate : 48.0 kHz
Frame rate : 31.250 FPS (1536 spf)
Compression mode : Lossy
Stream size : 546 MiB (5%)
Title : AC3, 640 Kbps (6 ch) Авторский (Ю.Живов)
Language : Russian
Default : No
Forced : No

Audio #5
ID : 6
Format : AC-3
Format/Info : Audio Coding 3
Mode extension : CM (complete main)
Format settings, Endianness : Big
Codec ID : A_AC3
Duration : 1 h 59 min
Bit rate mode : Constant
Bit rate : 640 kb/s
Channel(s) : 6 channels
Channel positions : Front: L C R, Side: L R, LFE
Sampling rate : 48.0 kHz
Frame rate : 31.250 FPS (1536 spf)
Compression mode : Lossy
Stream size : 546 MiB (5%)
Title : AC3, 640 Kbps (6 ch) Original
Language : English
Default : No
Forced : No

Text #1
ID : 7
Format : UTF-8
Codec ID : S_TEXT/UTF8
Codec ID/Info : UTF-8 Plain Text
Language : Russian
Default : No
Forced : No

Text #2
ID : 8
Format : UTF-8
Codec ID : S_TEXT/UTF8
Codec ID/Info : UTF-8 Plain Text
Language : English
Default : No
Forced : No

Menu
00:00:00.000 : :Chapter 01
00:08:40.810 : :Chapter 02
00:15:24.340 : :Chapter 03
00:27:56.132 : :Chapter 04
00:37:43.052 : :Chapter 05
00:50:19.558 : :Chapter 06
00:58:55.448 : :Chapter 07
01:09:23.783 : :Chapter 08
01:17:04.911 : :Chapter 09
01:22:30.487 : :Chapter 10
01:27:36.125 : :Chapter 11
01:39:34.551 : :Chapter 12
01:49:35.068 : :Chapter 13
01:53:23.129 : :Chapter 14
01:59:09.475 : :Chapter 15
pb.wtf



Скачать Человек-мотылек через торрент http://i1.imageban.ru/out/2017/06/21/962494694d9bf1ddd801bd68e3e79a8b.jpg Скачать фильм Человек-мотылек через торрент бесплантно в хорошем качестве Описание: Спустя два года после трагической гибели жены, журналист Джон Клайн оказывается в маленьком городке в Западной Вирджинии. ... 10 10 7
Info! Золотая раздача, скачанное не засчитывается.
Торрент: Зарегистрирован [2017-06-21 11:16] · скачан: 70 раз
Статус: √ проверено
Размер: 10.45 GB
Как cкачать? Как скачать Человек-мотылек через торрент | qTorrent

% Раздел Тема Автор DL S | L
Фильмы (Blu-ray, BD-Remux, HDDVD) [ 19.33 GB ] Человек-мотылек / The Mothman Prophecies [2002 BD Remux 1080p] DUB+MVO+AVO bober100 Скачать
1 | 0

28-11-2019 20:33  

Отключить всю рекламу на сайте

    Дорогой пользователь! Огромная просьба, поблагодарите релизера, оцените раздачу и оставьте свои комментарий, если Вы скачали Человек-мотылек через торрент бесплатно! Внесите свою лепту в развитие PiratBit!
    Комментировать посты могут только пользователи прошедшие не сложную регистрацию
    Показать сообщения:    

    Человек-мотылек через торрент
    Скачать бесплатно Человек-мотылек
    Человек-мотылек скачать торрент
    Человек-мотылек смотреть онлайн
    Cкачать фильм Человек-мотылек бесплатно
    Человек-мотылек скачать торрент в хорошем качестве
    Человек-мотылек смотреть онлайн бесплатно в хорошем качестве


    Вы не можете начинать темы
    Вы не можете отвечать на сообщения
    Вы не можете редактировать свои сообщения
    Вы не можете удалять свои сообщения
    Вы не можете голосовать в опросах
    Вы не можете прикреплять файлы к сообщениям
    Вы можете скачивать файлы