Ссылка на приватное зеркало всего за 1$. Внимание количество ограничено!!!

OK

1+1

iTunes

мы

OK

1

WEB-DLRip

Джокер

Пифагор

Ведьмак / The Witcher сериал

Лицензия

ПШазам

ОК

Оно 2

iTunes

30
pack

Вам бонус

ВАЖНО

!!Акция!!

Alien_RageХит недели

RePack

Resident Evil 21

ИГРА 18+

pack

RePack

jed

!!Акция!!

Alien_Rage

RePack

fifa19

RePack

Assassins Creed: Odyssey

RePack

NEED FOR SPEED™ PAYBACK

4 сезон

9 сезон

Бесстыжие 9 сезон

Все сериалы

все сериалы на PB.wtf

RePack

FAR CRY 5
  

Королевство кривых зеркал (Александр Роу) [1963 г., фэнтези, семейный, BDRip 720p / 60 FPS, Не требуется Русский] от R.G. HD-Films pb.wtf

Королевство кривых зеркал через торрент pb.wtf

Размер: 3.49 GB | Добавлен: 2 года 6 мес. назад | Торрент скачан:62 раза
Скачать  

21-06-2017 15:26 Королевство кривых зеркал Скачать торрент  

Королевство кривых зеркал
Год выпуска: 1963
Страна: СССР (Студия Горького)
Жанр: фэнтези, семейный
Продолжительность: 01:14:58
Перевод: Не требуется Русский

Режиссер: Александр Роу

В ролях: Ольга Юкина, Татьяна Юкина, Татьяна Барышева, Анатолий Кубацкий, Андрей Файт, Лидия Вертинская, Аркадий Цинман, Андрей Стапран, Иван Кузнецов, Георгий Милляр...

Описание: Однажды школьница Оля взглянула в самое обычное зеркало, которое висело дома в прихожей, и неожиданно отправилась путешествовать в волшебную зазеркальную страну вместе со своим отражением — озорной девочкой Яло. Вдвоем им удается вызволить из тюрьмы мальчика Гурда и разрушить злые чары кривых зеркал…

Качество: BDRip 720p / 60 FPS
Формат: MKV
Видео кодек: H.264
Аудио кодек: AC3
Видео: x264, 960 x 720 (4:3), 6149 kbps, 60,000 fps, ( 0.148 bpp)
Аудио#1: Русский, AC-3, 48.0 KHz, 6 ch, 384 Kbps

скриншот   скриншот   скриншот   скриншот   скриншот  
Автор рипа: slaventi-69
Общее
Уникальный идентификатор : 220936918496445878921800938987694271781 (0xA636E718597C73C8ABF22E1EA4CB2D25)
Полное имя : E:\Korolevstvo.krivyh.zerkal.(1963).BDRip,720p,(60 Fps).mkv
Формат : Matroska
Версия формата : Version 4 / Version 2
Размер файла : 3,49 Гбайт
Продолжительность : 1 ч. 14 м.
Общий поток : 6666 Кбит/сек
Название фильма : Королевство кривых зеркал (1963) BDRip 720p (60 Fps)
Дата кодирования : UTC 2017-06-21 14:53:13
Программа кодирования : mkvmerge v6.2.0 ('Promised Land') built on Apr 28 2013 12:22:01
Библиотека кодирования : libebml v1.3.0 + libmatroska v1.4.0

Видео
Идентификатор : 1
Формат : AVC
Формат/Информация : Advanced Video Codec
Профиль формата : High@L4.1
Параметр CABAC формата : Да
Параметр ReFrames формата : 4 кадра
Идентификатор кодека : V_MPEG4/ISO/AVC
Продолжительность : 1 ч. 14 м.
Битрейт : 6149 Кбит/сек
Ширина : 960 пикселей
Высота : 720 пикселей
Соотношение сторон : 4:3
Режим частоты кадров : Постоянный
Частота кадров : 60,000 кадров/сек
Цветовое пространство : YUV
Субдискретизация насыщенности : 4:2:0
Битовая глубина : 8 бит
Тип развёртки : Прогрессивная
Бит/(Пиксели*Кадры) : 0.148
Размер потока : 3,22 Гбайт (92%)
Заголовок : slaventi-69 ( R.G. HD-Films | 60 fps )
Библиотека кодирования : x264 core 130 r2273 b3065e6
Настройки программы : cabac=1 / ref=4 / deblock=1:-1:-1 / analyse=0x3:0x113 / me=umh / subme=9 / psy=1 / psy_rd=1.00:0.00 / mixed_ref=1 / me_range=20 / chroma_me=1 / trellis=1 / 8x8dct=1 / cqm=0 / deadzone=21,11 / fast_pskip=1 / chroma_qp_offset=-2 / threads=8 / lookahead_threads=1 / sliced_threads=0 / nr=0 / decimate=1 / interlaced=0 / bluray_compat=0 / constrained_intra=0 / bframes=4 / b_pyramid=2 / b_adapt=2 / b_bias=0 / direct=3 / weightb=1 / open_gop=0 / weightp=2 / keyint=250 / keyint_min=25 / scenecut=40 / intra_refresh=0 / rc_lookahead=50 / rc=crf / mbtree=1 / crf=18.0 / qcomp=0.60 / qpmin=0 / qpmax=69 / qpstep=4 / ip_ratio=1.40 / aq=1:1.00
Язык : Russian
Default : Да
Forced : Нет

Аудио
Идентификатор : 2
Формат : AC-3
Формат/Информация : Audio Coding 3
Расширение режима : CM (complete main)
Параметр Endianness формата : Big
Идентификатор кодека : A_AC3
Продолжительность : 1 ч. 14 м.
Вид битрейта : Постоянный
Битрейт : 384 Кбит/сек
Каналы : 6 каналов
Расположение каналов : Front: L C R, Side: L R, LFE
Частота : 48,0 КГц
Битовая глубина : 16 бит
Метод сжатия : С потерями
Размер потока : 206 Мбайт (6%)
Заголовок : Оригинал
Язык : Russian
Default : Да
Forced : Нет

pb.wtf



Скачать Королевство кривых зеркал через торрент http://s018.radikal.ru/i524/1208/55/f5d6c1d6d230.png Скачать фильм Королевство кривых зеркал через торрент бесплантно в хорошем качестве Описание: Однажды школьница Оля взглянула в самое обычное зеркало, которое висело дома в прихожей, и неожиданно отправилась путешествовать ... 10 10 7
Info! Золотая раздача, скачанное не засчитывается.
Торрент: Зарегистрирован [2017-06-21 15:26] · скачан: 62 раз
Статус: √ проверено
Размер: 3.49 GB
Как cкачать? Как скачать Королевство кривых зеркал через торрент | qTorrent

28-11-2019 20:33  

Отключить всю рекламу на сайте

    Дорогой пользователь! Огромная просьба, поблагодарите релизера, оцените раздачу и оставьте свои комментарий, если Вы скачали Королевство кривых зеркал через торрент бесплатно! Внесите свою лепту в развитие PiratBit!
    Комментировать посты могут только пользователи прошедшие не сложную регистрацию
    Показать сообщения:    

    Королевство кривых зеркал через торрент
    Скачать бесплатно Королевство кривых зеркал
    Королевство кривых зеркал скачать торрент
    Королевство кривых зеркал смотреть онлайн
    Cкачать фильм Королевство кривых зеркал бесплатно
    Королевство кривых зеркал скачать торрент в хорошем качестве
    Королевство кривых зеркал смотреть онлайн бесплатно в хорошем качестве


    Вы не можете начинать темы
    Вы не можете отвечать на сообщения
    Вы не можете редактировать свои сообщения
    Вы не можете удалять свои сообщения
    Вы не можете голосовать в опросах
    Вы не можете прикреплять файлы к сообщениям
    Вы можете скачивать файлы