2 сезон

iTunes

MVO

1

2 сезон

iTunes

iTunes

1 сезон

RePack

30

Новинка

ВАЖНО

ИГРА 18+

pack

RePack

MK11
pack

Легкие деньги

RePack

jed

RePack

fifa19

RePack

RDR2

RePack

NEED FOR SPEED™ PAYBACK

4 сезон

9 сезон

Бесстыжие 9 сезон

Все сериалы

все сериалы на PB.wtf

RePack

FAR CRY 5

Anonymous, доброе утро, мы не успеваем собрать деньги на оплату серверов за декабрь и январь, помогите нам пожалуйста в это трудное время. В качестве благодарности мы отключим Вам всю рекламу на сайте (укажите свой ник в строку Ваше имя)!

×
  
Magnet ссылка

Совместная поездка / Ride Along (Тим Стори) [2014 г., боевик, комедия, BDRip 720p / 60 FPS, Дубляж] от R.G. HD-Films pb.wtf

Совместная поездка через торрент pb.wtf

Размер: 2.9 GB | Добавлен: 3 года 7 мес. назад | Торрент скачан:89 раз
Скачать  

21-06-2017 17:05 Совместная поездка Скачать торрент  

Совместная поездка / Ride Along
Год выпуска: 2014
Страна: США
Жанр: боевик, комедия
Продолжительность: 01:39:31
Перевод: Дубляж

Режиссер: Тим Стори

В ролях: Айс Кьюб, Кевин Харт, Лоренс Фишбёрн, Джон Легуизамо, Брюс МакГилл, Тика Самптер, Брайан Коллен, Драгош Букур, Гари Оуэн, Джейкоб Латимор

Описание: Вот уже два года охранник средней школы Бен только то и делает, что пытается доказать опытному детективу Джеймсу, что достоин его сестры Анджелы, своей будущей невесты. На этот раз, как следует из фильма «Совместная поездка» (Ride Along), он предпринимает очередной шаг, что влечет за собой самые сумасшедшие 24 часа в его жизни. Когда Бен, наконец, принят в полицейскую академию, он думает, что наконец-то заслужил руку и сердце Анджелы, и просит согласия будущего шурина на свадьбу. А тот, в свою очередь, приглашает героя кинокартины «Совместная поездка» отправиться вместе в рейд по городу. Но когда безумная ночь приведет их к самому печально известному бандиту в городе, Джеймс поймет, что слишком болтливый язык его нового напарника так же опасен, как и смертоносные пули.

Качество: BDRip 720p / 60 FPS
Формат: MKV
Видео кодек: H.264
Аудио кодек: AC3
Видео: x264, 1280 x 536 (2,40:1), 4978 kbps, 60,000 fps, ( 0.090 bpp)
Аудио#1: Русский, AC-3, 48.0 KHz, 6 ch, 384 Kbps

скриншот   скриншот   скриншот   скриншот   скриншот  
Автор рипа: slaventi-69
x264 [info]: frame I:2557 Avg QP:14.18 size: 98507
x264 [info]: frame P:86819 Avg QP:16.97 size: 18136
x264 [info]: frame B:269002 Avg QP:20.19 size: 3725
x264 [info]: consecutive B-frames: 2.3% 2.4% 9.6% 22.5% 63.2%


Общее
Уникальный идентификатор : 250344943058397232750754470792976941310 (0xBC56AEA66075DB43AAEA10177DC440FE)
Полное имя : E:\Ride_Along.(2014).BDRip.720p,(60 Fps).mkv
Формат : Matroska
Версия формата : Version 4 / Version 2
Размер файла : 2,90 Гбайт
Продолжительность : 1 ч. 39 м.
Общий поток : 4176 Кбит/сек
Название фильма : Совместная поездка / Ride Along (2014) BDRip 720p (60 Fps)
Дата кодирования : UTC 2017-06-21 15:55:42
Программа кодирования : mkvmerge v6.2.0 ('Promised Land') built on Apr 28 2013 12:22:01
Библиотека кодирования : libebml v1.3.0 + libmatroska v1.4.0

Видео
Идентификатор : 1
Формат : AVC
Формат/Информация : Advanced Video Codec
Профиль формата : High@L4.1
Параметр CABAC формата : Да
Параметр ReFrames формата : 4 кадра
Идентификатор кодека : V_MPEG4/ISO/AVC
Продолжительность : 1 ч. 39 м.
Битрейт : 3709 Кбит/сек
Ширина : 1280 пикселей
Высота : 536 пикселей
Соотношение сторон : 2,40:1
Режим частоты кадров : Постоянный
Частота кадров : 60,000 кадров/сек
Цветовое пространство : YUV
Субдискретизация насыщенности : 4:2:0
Битовая глубина : 8 бит
Тип развёртки : Прогрессивная
Бит/(Пиксели*Кадры) : 0.090
Размер потока : 2,58 Гбайт (89%)
Заголовок : slaventi-69 ( R.G. HD-Films | 60 fps )
Библиотека кодирования : x264 core 130 r2273 b3065e6
Настройки программы : cabac=1 / ref=4 / deblock=1:0:0 / analyse=0x3:0x113 / me=umh / subme=9 / psy=1 / psy_rd=1.00:0.00 / mixed_ref=1 / me_range=20 / chroma_me=1 / trellis=1 / 8x8dct=1 / cqm=0 / deadzone=21,11 / fast_pskip=1 / chroma_qp_offset=-2 / threads=8 / lookahead_threads=1 / sliced_threads=0 / nr=0 / decimate=1 / interlaced=0 / bluray_compat=0 / constrained_intra=0 / bframes=4 / b_pyramid=2 / b_adapt=2 / b_bias=0 / direct=3 / weightb=1 / open_gop=0 / weightp=2 / keyint=250 / keyint_min=25 / scenecut=40 / intra_refresh=0 / rc_lookahead=50 / rc=crf / mbtree=1 / crf=15.5 / qcomp=0.60 / qpmin=0 / qpmax=69 / qpstep=4 / ip_ratio=1.40 / aq=1:1.00
Язык : English
Default : Да
Forced : Нет

Аудио
Идентификатор : 2
Формат : AC-3
Формат/Информация : Audio Coding 3
Параметр Endianness формата : Big
Идентификатор кодека : A_AC3
Продолжительность : 1 ч. 39 м.
Вид битрейта : Постоянный
Битрейт : 384 Кбит/сек
Каналы : 6 каналов
Расположение каналов : Front: L C R, Side: L R, LFE
Частота : 48,0 КГц
Частота кадров : 31,250 кадров/сек (1536 spf)
Битовая глубина : 16 бит
Метод сжатия : С потерями
Размер потока : 273 Мбайт (9%)
Заголовок : Dub
Язык : Russian
ServiceKind/String : Complete Main
Default : Да
Forced : Нет

pb.wtf



Скачать Совместная поездка через торрент http://i64.fastpic.ru/big/2014/0704/4d/c437001de380d603495efbd7d173334d.jpg Скачать фильм Совместная поездка через торрент бесплантно в хорошем качестве Описание: Вот уже два года охранник средней школы Бен только то и делает, что пытается доказать опытному детективу Джеймсу, что достоин его ... 10 10 5
Info! Золотая раздача, скачанное не засчитывается.
Торрент: Зарегистрирован [2017-06-21 17:05] · скачан: 89 раз
Статус: √ проверено
Размер: 2.9 GB
Как cкачать? Как скачать Совместная поездка через торрент | UTorrent

28-11-2019 20:33  

Отключить всю рекламу на сайте

    Дорогой пользователь! Огромная просьба, поблагодарите релизера, оцените раздачу и оставьте свои комментарий, если Вы скачали Совместная поездка через торрент бесплатно! Внесите свою лепту в развитие PiratBit!
    Комментировать посты могут только пользователи прошедшие не сложную регистрацию
    Показать сообщения:    

    Совместная поездка через торрент
    Скачать бесплатно Совместная поездка
    Совместная поездка скачать торрент
    Совместная поездка смотреть онлайн
    Cкачать фильм Совместная поездка бесплатно
    Совместная поездка скачать торрент в хорошем качестве
    Совместная поездка смотреть онлайн бесплатно в хорошем качестве


    Вы не можете начинать темы
    Вы не можете отвечать на сообщения
    Вы не можете редактировать свои сообщения
    Вы не можете удалять свои сообщения
    Вы не можете голосовать в опросах
    Вы не можете прикреплять файлы к сообщениям
    Вы можете скачивать файлы