Ссылка на приватное зеркало всего за 1$. Внимание количество ограничено!!!

OK

1+1

iTunes

мы

OK

1

WEB-DLRip

Джокер

Пифагор

Ведьмак / The Witcher сериал

iTunes

ПШазам

ОК

Оно 2

iTunes

30
pack

Вам бонус

ВАЖНО

!!Акция!!

Alien_RageХит недели

RePack

Resident Evil 21

ИГРА 18+

pack

RePack

jed

RePack

fifa19

RePack

Assassins Creed: Odyssey

RePack

NEED FOR SPEED™ PAYBACK

4 сезон

9 сезон

Бесстыжие 9 сезон

Все сериалы

все сериалы на PB.wtf

RePack

FAR CRY 5
  

Вспомнить всё: Похищение / The Recall (Мауро Боррелли) [2017, Фантастика, WEB-DL 1080p] MVO ["Синема УС"] pb.wtf

Вспомнить всё: Похищение через торрент pb.wtf

Раздают: 1 [ 0 KB/s ]
Размер: 3.4 GB | Добавлен: 2 года 7 мес. назад | Торрент скачан:310 раз
Скачать  

21-06-2017 17:12 Вспомнить всё: Похищение Скачать торрент  

Вспомнить всё: Похищение / The Recall
Год выпуска: 2017
Страна: Канада
Жанр: Фантастика
Продолжительность: 01:32:23
Перевод: Любительский (многоголосый) - ["Синема УС"]
Субтитры: отсутствуют

Режиссер: Мауро Боррелли

rating

В ролях:

АрДжей Митти, Уэсли Снайпс, Джедидайя Гудакр, Нико Пепадж, Грэхэм Шилз, Hannah Rose May, Виселос Реон Шеннон, Элиша Криис, Лаура Билгери, Guy Griffithe

Описание:

Пока группа друзей собирается в День Труда отдохнуть на острове - по всему миру происходят странные метеорологические явления, а обитающий в окрестностях того же озера опальный астронавт готовится к возвращению неких Посетителей, с которыми у него личные счеты.

Качество: WEB-DL 1080p
Формат: MKV
Видео кодек: H.264
Аудио кодек: AC3

Видео: AVC, 1904x792 (2.40:1), 23.976 fps, 4 878 Kbps (0.132 bit/pixel)
Аудио#1: AC-3, 48.0 KHz, 2 ch, 384 Kbps, CBR

скриншот   скриншот   скриншот   скриншот  

Общее
Уникальный идентификатор : 233721481124402749345894053527157003303 (0xAFD51EB2B5D45C929D24117E9244D427)
Полное имя : C:NNMВозвращениеVozvrashenie 2017 WEB-DL 1080p-LQ.mkv
Формат : Matroska
Версия формата : Version 2
Размер файла : 3,40 Гбайт
Продолжительность : 1 ч. 32 м.
Режим общего битрейта : Переменный
Общий поток : 5264 Кбит/сек
Дата кодирования : UTC 2017-06-17 18:16:46
Программа кодирования : mkvmerge v8.3.0 ('Over the Horizon') 64bit
Библиотека кодирования : libebml v1.3.1 + libmatroska v1.4.2

Видео
Идентификатор : 1
Формат : AVC
Формат/Информация : Advanced Video Codec
Профиль формата : High@L4.1
Параметр CABAC формата : Да
Параметр ReFrames формата : 5 кадров
Идентификатор кодека : V_MPEG4/ISO/AVC
Продолжительность : 1 ч. 32 м.
Вид битрейта : Переменный
Битрейт : 4878 Кбит/сек
Максимальный битрейт : 5500 Кбит/сек
Ширина : 1904 пикселя
Высота : 792 пикселя
Соотношение сторон : 2,40:1
Режим частоты кадров : Постоянный
Частота кадров : 23,976 (24000/1001) кадра/сек
Стандарт вещания : Component
Цветовое пространство : YUV
Субдискретизация насыщенности : 4:2:0
Битовая глубина : 8 бит
Тип развёртки : Прогрессивная
Бит/(Пиксели*Кадры) : 0.135
Размер потока : 3,15 Гбайт (93%)
Default : Да
Forced : Нет
Цветовой диапазон : Limited
Основные цвета : BT.709
Характеристики трансфера : BT.709
Коэффициенты матрицы : BT.709

Аудио
Идентификатор : 2
Формат : AC-3
Формат/Информация : Audio Coding 3
Расширение режима : CM (complete main)
Параметр Endianness формата : Big
Идентификатор кодека : A_AC3
Продолжительность : 1 ч. 32 м.
Вид битрейта : Постоянный
Битрейт : 384 Кбит/сек
Каналы : 2 канала
Расположение каналов : Front: L R
Частота : 48,0 КГц
Частота кадров : 31,250 кадров/сек (1536 spf)
Битовая глубина : 16 бит
Метод сжатия : С потерями
Размер потока : 254 Мбайт (7%)
Default : Да
Forced : Нет

pb.wtf
Kschultz писал(а):

сэмпл с AVI файла для оценки звука



Скачать Вспомнить всё: Похищение через торрент http://s019.radikal.ru/i619/1706/77/5538f7369a0d.jpg Скачать фильм Вспомнить всё: Похищение через торрент бесплантно в хорошем качестве Описание: Пока группа друзей собирается в День Труда отдохнуть на острове - по всему миру происходят странные метеорологические явления, а ... 9.2 10 16
Info! Золотая раздача, скачанное не засчитывается.
Торрент: Зарегистрирован [2017-06-21 17:12] · скачан: 310 раз
Статус: T временная
Размер: 3.4 GB
Как cкачать? Как скачать Вспомнить всё: Похищение через торрент | qTorrent

% Раздел Тема Автор DL S | L
T Фильмы 2017 [DVDrip, WEB-DLRip, HDrip] (DUB, MVO) [ 699 MB ] Вспомнить всё: Похищение / The Recall [2017 WEB-DLRip] | Любительское ["Синема УС"] Sherif Скачать
1 | 0
T Релизы по Парсеру [Игры, Сериалы и Фильмы и другое...] [ 1.37 GB ] Вспомнить всё: Похищение / The Recall [2017 WEB-DLRip] | Любительское ["Синема УС"] Sherif Скачать
1 | 0

28-11-2019 20:33  

Отключить всю рекламу на сайте

21-06-2017 21:39 Вспомнить всё: Похищение Скачать торрент  

лучше уж порнуху снималиpb.wtf



22-06-2017 22:03 Вспомнить всё: Похищение Скачать торрент  

GuruBrain писал(а):

лучше уж порнуху снимали

Это и есть неудачная порнуха pb.wtf



27-06-2017 08:46 Вспомнить всё: Похищение Скачать торрент  

"Бомж с дробовиком"pb.wtf



14-12-2017 18:16 Вспомнить всё: Похищение Скачать торрент  

    Дорогой пользователь! Огромная просьба, поблагодарите релизера, оцените раздачу и оставьте свои комментарий, если Вы скачали Вспомнить всё: Похищение через торрент бесплатно! Внесите свою лепту в развитие PiratBit!
    Комментировать посты могут только пользователи прошедшие не сложную регистрацию
    Показать сообщения:    

    Вспомнить всё: Похищение через торрент
    Скачать бесплатно Вспомнить всё: Похищение
    Вспомнить всё: Похищение скачать торрент
    Вспомнить всё: Похищение смотреть онлайн
    Cкачать фильм Вспомнить всё: Похищение бесплатно
    Вспомнить всё: Похищение скачать торрент в хорошем качестве
    Вспомнить всё: Похищение смотреть онлайн бесплатно в хорошем качестве


    Вы не можете начинать темы
    Вы не можете отвечать на сообщения
    Вы не можете редактировать свои сообщения
    Вы не можете удалять свои сообщения
    Вы не можете голосовать в опросах
    Вы не можете прикреплять файлы к сообщениям
    Вы можете скачивать файлы