1 сезон

3 сезон

iTunes

1

iTunes

MVO

iTunes

13

1 сезон

RePack

30

Deluxe

pack

Лицензия

ВАЖНО

ИГРА 18+

pack

RePack

MK11

RePack

jed

RePack

fifa19

RePack

RDR2

RePack

NEED FOR SPEED™ PAYBACK

4 сезон

9 сезон

Бесстыжие 9 сезон

Все сериалы

все сериалы на PB.wtf

RePack

FAR CRY 5

Anonymous, добрый день, мы катастрофически не успеваем собрать деньги на оплату серверов, помогите нам пожалуйста 5,10,15р., для нас важна любая помощь . В качестве благодарности мы отключим Вам всю рекламу на сайте (укажите свой ник в строку Ваше имя)!

×
  
Magnet ссылка

S.P.L. Звезды судьбы 2 / SPL 2: A Time for Consequences (Чин Поу-сои) [2015, боевик, триллер, криминал, BDRip от R.G. Resident] Авторский одноголосый [Ю.Живов] pb.wtf

S.P.L. Звезды судьбы 2 через торрент pb.wtf

Размер: 2.06 GB | Добавлен: 4 года 1 мес. назад | Торрент скачан:260 раз
Скачать  

21-06-2017 17:59 S.P.L. Звезды судьбы 2 Скачать торрент  

S.P.L. Звезды судьбы 2 / SPL 2: A Time for Consequences

Год выпуска: 2015
Страна: Китай, Гонконг
Жанр: боевик, триллер, криминал

Продолжительность: 01:59:58
Перевод: Авторский одноголосый [Ю.Живов]
Режиссер: Чин Поу-сои
В ролях:

Тони Джа (Chatchai), Джеки Ву (Chan Chi-Kit), Саймон Ям (Chan Kwok-Wah), Макс Чжан (Ko Hung), Луис Ку (Hung Mun-Gong), Кэн Ло (Wong Kwong), Джун Кхун (Hung Mun-Biu), Dominic Lam (Cheung Chun-Tung), Бэбиджон Чой (Kwok Chun-Yat), Вэй Аи (Dai-Hau), Филип Кюн (Fan Ging-Hung), Эндрю Нг (Uncle On)
Описание:
Крутой гонконгский полицейский Кит загоняет в угол крупного гангстера, но тот поворачивает все в свою сторону - главный свидетель Кита исчез. Более того, Кита отправляют в тайскую тюрьму, снабдив фальшивым списком преступлений. Тюремный охранник Чай следит за тем, чтобы Кит не сбежал - дочь Чая страдает от редкой формы лейкемии, и только Кит может стать для нее подходящим донором.
Рейтинг:

Качество: BDRip
Формат: AVI
Видео: XviD, 720x304 (2.35:1), 1995 kbps, 24 fps, 0,380 bpp
Аудио: AC3 / 5.1 / 48 kHz / 448 kbps /

General
Complete name : E:\SPL.II.A.Time.for.Consequences.2015.BDRip.R.G.Resident.avi
Format : AVI
Format/Info : Audio Video Interleave
Format profile : OpenDML
File size : 2.06 GiB
Duration : 1 h 59 min
Overall bit rate : 2 455 kb/s
Writing application : VirtualDubModRus 1.5.10.2 (build 2542/release)
Writing library : VirtualDubMod build 2542/release

Video
ID : 0
Format : MPEG-4 Visual
Format profile : Advanced Simple@L5
Format settings, BVOP : 2
Format settings, QPel : No
Format settings, GMC : No warppoints
Format settings, Matrix : Custom
Codec ID : XVID
Codec ID/Hint : XviD
Duration : 1 h 59 min
Bit rate : 1 995 kb/s
Width : 720 pixels
Height : 304 pixels
Display aspect ratio : 2.35:1
Frame rate : 24.000 FPS
Color space : YUV
Chroma subsampling : 4:2:0
Bit depth : 8 bits
Scan type : Progressive
Compression mode : Lossy
Bits/(Pixel*Frame) : 0.380
Stream size : 1.67 GiB (81%)
Writing library : XviD 73

Audio
ID : 1
Format : AC-3
Format/Info : Audio Coding 3
Mode extension : CM (complete main)
Format settings, Endianness : Big
Codec ID : 2000
Duration : 1 h 59 min
Bit rate mode : Constant
Bit rate : 448 kb/s
Channel(s) : 6 channels
Channel positions : Front: L C R, Side: L R, LFE
Sampling rate : 48.0 kHz
Frame rate : 31.250 FPS (1536 spf)
Compression mode : Lossy
Stream size : 384 MiB (18%)
Alignment : Split accross interleaves
Interleave, duration : 42 ms (1.00 video frame)
Interleave, preload duration : 500 ms
pb.wtf



Скачать S.P.L. Звезды судьбы 2 через торрент http://i77.fastpic.ru/big/2016/0417/a7/808a646271c761f7c7d87df3d366b3a7.png Скачать фильм S.P.L. Звезды судьбы 2 через торрент бесплантно в хорошем качестве Описание: Крутой гонконгский полицейский Кит загоняет в угол крупного гангстера, но тот поворачивает все в свою сторону - главный свидетель ... 8.8 10 12
Info! Золотая раздача, скачанное не засчитывается.
Торрент: Зарегистрирован [2017-06-21 17:59] · скачан: 260 раз
Статус: √ проверено
Размер: 2.06 GB
Как cкачать? Как скачать S.P.L. Звезды судьбы 2 через торрент | UTorrent

% Раздел Тема Автор DL S | L
R.G. Resident & PiratVoice - Фильмы, Видео [ 2.68 GB ] S.P.L. Звезды судьбы 2 / SPL 2: A Time for Consequences [2015 BDRip-AVC от R.G. Resident] АVO [Ю.Живов] DVO [den904 & DeadSno] -Lexx- Скачать
2 | 0

28-11-2019 20:33  

Отключить всю рекламу на сайте

22-06-2017 07:21 S.P.L. Звезды судьбы 2 Скачать торрент  

Кто смотрел? Ну как здесь Тони Джаа, не устал еще?pb.wtf



22-06-2017 12:08 S.P.L. Звезды судьбы 2 Скачать торрент  

судя по трем иксам, ещё не устал). Поглядим на это!pb.wtf



    Дорогой пользователь! Огромная просьба, поблагодарите релизера, оцените раздачу и оставьте свои комментарий, если Вы скачали S.P.L. Звезды судьбы 2 через торрент бесплатно! Внесите свою лепту в развитие PiratBit!
    Комментировать посты могут только пользователи прошедшие не сложную регистрацию
    Показать сообщения:    

    S.P.L. Звезды судьбы 2 через торрент
    Скачать бесплатно S.P.L. Звезды судьбы 2
    S.P.L. Звезды судьбы 2 скачать торрент
    S.P.L. Звезды судьбы 2 смотреть онлайн
    Cкачать фильм S.P.L. Звезды судьбы 2 бесплатно
    S.P.L. Звезды судьбы 2 скачать торрент в хорошем качестве
    S.P.L. Звезды судьбы 2 смотреть онлайн бесплатно в хорошем качестве


    Вы не можете начинать темы
    Вы не можете отвечать на сообщения
    Вы не можете редактировать свои сообщения
    Вы не можете удалять свои сообщения
    Вы не можете голосовать в опросах
    Вы не можете прикреплять файлы к сообщениям
    Вы можете скачивать файлы