новый адрес
Мега распродажа FORZA HORIZON 4 ULTIMATE+ВСЕ DLC+ОНЛАЙН всего за 499р. 349 руб. (супер цена). Внимание количество ограничено!!!

iTunes

1+1

iTunes

мы

iTunes

1

iTunes

Чернобыль

iTunes

Ральф против интернета

Лицензия

ПШазам

Лицензия

Игра престолов

Лицензия

30
pack

ВАЖНО

!!Акция!!

Alien_RageХит недели

RePack

Resident Evil 21

ИГРА 18+

pack

RePack

Metro:Exodus

!!Акция!!

Alien_Rage

RePack

fifa19

RePack

Assassins Creed: Odyssey

RePack

NEED FOR SPEED™ PAYBACK

3 сезон

9 сезон

Бесстыжие 9 сезон

Все сериалы

все сериалы на PB.wtf

RePack

FAR CRY 5
Ребята, катастрофически не хватает 1900р. для оплаты серверов за Октябрь (всвязи с блокировками трафик упал в 3 раза), 1-2р., выручайте.
  

100 метров / 100 metros (Марсель Баррена) [ 2016 г., Драма, BDRip-AVC] [VO] (BadBajo) - ExKinoRay pb.wtf

100 метров через торрент pb.wtf

Размер: 1.93 GB | Добавлен: 2 года 4 мес. назад | Торрент скачан:176 раз
Скачать  

21-06-2017 19:24 100 метров Скачать торрент  

Информация о фильме
Название: 100 метров
Оригинальное название: 100 metros
Год выпуска: 2016
Жанр: Комедия, драма, реальные события
Выпущено: Испания, Португалия, Castelao Pictures, Cien Metros La Película
Продолжительность: 01:48:45
Перевод: Любительский одноголосый (BadBajo)
Субтитры: Русские, английские, испанские
Режиссер: Марсель Баррена
В ролях: Дэни Ровира, Карра Элехальде, Александра Хименес, Давид Вердагер, Клара Сегура, Альба Рибас, Бруно Бергондзини, Рикарду Перейра, Мануэла Коуту, Марк Балагер

Описание:
Фильм основан на реальных событиях. Рассказывает о человеке, которому поставили диагноз - рассеянный склероз. Но этот человек не сдался и прошел триатлон. В итоге он проплыл 3,8 километра, проехал на велосипеде 180 километров и затем пробежал 42 километра. До этого он не мог пройти и ста метров.

rating

Файл
Формат: MKV
Качество: BDRip-AVC
Видео: AVC, 1024х428 (2.40:1), 1640 kbps, 24,000 fps, 0,156 bpp
Аудио 1: 48 kHz, AC3, 5.1, 448 Kbps | RUS | BadBajo
Аудио 2: 48 kHz, AC3, 5.1, 448 Kbps | SPA |

Семпл

Без какой-либо рекламы
General
Unique ID : 232929940653953291388861548687898035325 (0xAF3CACBD65CD779F8C0760126F4DC47D)
Complete name : D:\100.Metros.2016.BDRip.AVC.ExKinoRay.mkv
Format : Matroska
Format version : Version 2
File size : 1.93 GiB
Duration : 1 h 48 min
Overall bit rate : 2 536 kb/s
Movie name : 100 метров (2016) from ExKinoRay
Encoded date : UTC 2017-06-21 18:23:47
Writing application : mkvmerge v5.6.0 ('Kenya Kane') built on May 27 2012 16:44:04
Writing library : libebml v1.2.3 + libmatroska v1.3.0

Video
ID : 1
Format : AVC
Format/Info : Advanced Video Codec
Format profile : High@L4.1
Format settings, CABAC : Yes
Format settings, ReFrames : 12 frames
Codec ID : V_MPEG4/ISO/AVC
Duration : 1 h 48 min
Bit rate : 1 640 kb/s
Width : 1 024 pixels
Height : 428 pixels
Display aspect ratio : 2.40:1
Frame rate mode : Constant
Frame rate : 24.000 FPS
Color space : YUV
Chroma subsampling : 4:2:0
Bit depth : 8 bits
Scan type : Progressive
Bits/(Pixel*Frame) : 0.156
Stream size : 1.21 GiB (63%)
Title : Enigma
Writing library : x264 core 144 r2525 40bb568
Encoding settings : cabac=1 / ref=12 / deblock=1:-2:-2 / analyse=0x3:0x113 / me=umh / subme=10 / psy=1 / psy_rd=1.02:0.09 / mixed_ref=1 / me_range=32 / chroma_me=1 / trellis=2 / 8x8dct=1 / cqm=0 / deadzone=21,11 / fast_pskip=1 / chroma_qp_offset=-3 / threads=12 / lookahead_threads=3 / sliced_threads=0 / nr=0 / decimate=0 / interlaced=0 / bluray_compat=0 / constrained_intra=0 / bframes=10 / b_pyramid=2 / b_adapt=2 / b_bias=0 / direct=3 / weightb=1 / open_gop=0 / weightp=2 / keyint=240 / keyint_min=24 / scenecut=40 / intra_refresh=0 / rc_lookahead=40 / rc=2pass / mbtree=0 / bitrate=1640 / ratetol=1.0 / qcomp=0.60 / qpmin=0 / qpmax=51 / qpstep=4 / cplxblur=20.0 / qblur=0.5 / vbv_maxrate=50000 / vbv_bufsize=62500 / nal_hrd=none / filler=0 / ip_ratio=1.40 / pb_ratio=1.30 / aq=1:1.00
Language : English
Default : Yes
Forced : No
Color range : Limited
Color primaries : BT.709
Transfer characteristics : BT.709
Matrix coefficients : BT.709

Audio #1
ID : 2
Format : AC-3
Format/Info : Audio Coding 3
Mode extension : CM (complete main)
Format settings, Endianness : Big
Codec ID : A_AC3
Duration : 1 h 48 min
Bit rate mode : Constant
Bit rate : 448 kb/s
Channel(s) : 6 channels
Channel positions : Front: L C R, Side: L R, LFE
Sampling rate : 48.0 kHz
Frame rate : 31.250 FPS (1536 spf)
Compression mode : Lossy
Stream size : 349 MiB (18%)
Title : AVO (BadBajo)
Language : Russian
Default : Yes
Forced : No

Audio #2
ID : 3
Format : AC-3
Format/Info : Audio Coding 3
Mode extension : CM (complete main)
Format settings, Endianness : Big
Codec ID : A_AC3
Duration : 1 h 48 min
Bit rate mode : Constant
Bit rate : 448 kb/s
Channel(s) : 6 channels
Channel positions : Front: L C R, Side: L R, LFE
Sampling rate : 48.0 kHz
Frame rate : 31.250 FPS (1536 spf)
Compression mode : Lossy
Stream size : 349 MiB (18%)
Language : Spanish
Default : No
Forced : No

Text #1
ID : 4
Format : UTF-8
Codec ID : S_TEXT/UTF8
Codec ID/Info : UTF-8 Plain Text
Language : Russian
Default : No
Forced : No

Text #2
ID : 5
Format : UTF-8
Codec ID : S_TEXT/UTF8
Codec ID/Info : UTF-8 Plain Text
Language : English
Default : No
Forced : No

Text #3
ID : 6
Format : UTF-8
Codec ID : S_TEXT/UTF8
Codec ID/Info : UTF-8 Plain Text
Language : Spanish
Default : No
Forced : No

Menu
00:00:00.000 : en:00:00:00.000
00:10:38.917 : en:00:10:38.917
00:20:55.708 : en:00:20:55.708
00:28:59.458 : en:00:28:59.458
00:41:18.542 : en:00:41:18.542
00:51:34.875 : en:00:51:34.875
01:07:29.208 : en:01:07:29.208
01:17:26.000 : en:01:17:26.000
01:28:40.625 : en:01:28:40.625
Релиз от:

Автор релиза: pb.wtf



Скачать 100 метров через торрент http://i95.fastpic.ru/big/2017/0527/33/63510f0d680a5e2c315aea654b88bb33.jpg Скачать фильм 100 метров через торрент бесплантно в хорошем качестве Описание:Фильм основан на реальных событиях. Рассказывает о человеке, которому поставили диагноз - рассеянный склероз. Но этот человек не ... 10 10 4
Info! Золотая раздача, скачанное не засчитывается.
Торрент: Зарегистрирован [2017-06-21 19:24] · скачан: 176 раз
Статус: √ проверено
Размер: 1.93 GB
Как cкачать? Как скачать 100 метров через торрент | qTorrent


>> Регистрируемся здесь <<






Отзывы и комментарии о схеме читаем и пишем здесь: ---> Отзывы и комментарии о схеме

Новые благодарочки в телеграм довольных пользователей:
скриншот   скриншот   скриншот   скриншот   скриншот

21-06-2017 19:35 100 метров Скачать торрент  

Очень хороший фильм. Заставляет задуматься.
Это фильм о человеке с бесконечной силой духа. Он очень душевный и цепляет за живое. Сюжет интересный и держит внимание зрителя на протяжении всего фильма. В нем есть и хороший юмор, который, казалось бы, в данной ситуации совсем не уместен, но он пришелся очень кстати.

Главный герой поражает своим оптимизмом, он все время надеяться на лучшее, и именно за это он и будет в последствии вознагражден. Ему так же повезло с семьей. Близкие постоянно поддерживают его и принимают все его идеи. Именно такая поддержка позволила Рамону быть в тонусе и в положительном настроении.
pb.wtf



22-06-2017 06:52 100 метров Скачать торрент  

Надо посмотреть. Триатлон, велосипедный спорт это интересно)pb.wtf



22-06-2017 12:01 100 метров Скачать торрент  

Enigma2010 писал(а):

Очень хороший фильм. Заставляет задуматься.
Это фильм о человеке с бесконечной силой духа. Он очень душевный и цепляет за живое. Сюжет интересный и держит внимание зрителя на протяжении всего фильма. В нем есть и хороший юмор, который, казалось бы, в данной ситуации совсем не уместен, но он пришелся очень кстати.

Главный герой поражает своим оптимизмом, он все время надеяться на лучшее, и именно за это он и будет в последствии вознагражден. Ему так же повезло с семьей. Близкие постоянно поддерживают его и принимают все его идеи. Именно такая поддержка позволила Рамону быть в тонусе и в положительном настроении.

Не хрена триатлон весь прошёл больной,правда ли что на реальных событиях?pb.wtf



    Дорогой пользователь! Огромная просьба, поблагодарите релизера, оцените раздачу и оставьте свои комментарий, если Вы скачали 100 метров через торрент бесплатно! Внесите свою лепту в развитие PiratBit!
    Комментировать посты могут только пользователи прошедшие не сложную регистрацию
    Показать сообщения:    

    100 метров через торрент
    Скачать бесплатно 100 метров
    100 метров скачать торрент
    100 метров смотреть онлайн
    Cкачать фильм 100 метров бесплатно
    100 метров скачать торрент в хорошем качестве
    100 метров смотреть онлайн бесплатно в хорошем качестве


    Вы не можете начинать темы
    Вы не можете отвечать на сообщения
    Вы не можете редактировать свои сообщения
    Вы не можете удалять свои сообщения
    Вы не можете голосовать в опросах
    Вы не можете прикреплять файлы к сообщениям
    Вы можете скачивать файлы