2 сезон

iTunes

MVO

1

2 сезон

iTunes

iTunes

1 сезон

RePack

30

Новинка

ВАЖНО

ИГРА 18+

pack

RePack

MK11
pack

Легкие деньги

RePack

jed

RePack

fifa19

RePack

RDR2

RePack

NEED FOR SPEED™ PAYBACK

4 сезон

9 сезон

Бесстыжие 9 сезон

Все сериалы

все сериалы на PB.wtf

RePack

FAR CRY 5

Anonymous, доброй ночи, мы не успеваем собрать деньги на оплату серверов за декабрь и январь, помогите нам пожалуйста в это трудное время. В качестве благодарности мы отключим Вам всю рекламу на сайте (укажите свой ник в строку Ваше имя)!

×
  
Magnet ссылка

Время псов / Hunter's Prayer (Джонатан Мостоу) [2017, Боевик, WEB-DLRip-AVC] Dub [iTunes], VO [BadBajo] - ExKinoRay pb.wtf

Время псов через торрент pb.wtf

Размер: 1.63 GB | Добавлен: 3 года 6 мес. назад | Торрент скачан:384 раза
Скачать  

22-06-2017 00:35 Время псов Скачать торрент  

Информация о фильме
Название: Время псов
Оригинальное название: Hunter's Prayer
Год выпуска: 2017
Страна: Германия
Студия: Apollo Media, FilmEngine, Full Clip Productions, HP Yorkshire Limited, Maple Leaf Films, Screen Yorkshire, Vandal Entertainment
Жанр: Боевик
Продолжительность: 01:30:50
Перевод: Дублированный | iTunes
Любительский одноголосый | BadBajo
Субтитры: Английские
Примечание: Релиз без рекламы
Режиссер: Джонатан Мостоу
В ролях: Сэм Уортингтон, Мартин Компстон, Одейя Раш, Вероника Эчеги, Аллен Лич, Эми Ландекер, Дин Джаггер III, Катя Бокор, Сэм Каллингворт

Описание:
Чтобы преподать урок своему работнику, крупный бизнесмен мистер Эдисон, нанимает киллера по имени Лукас. Лукасу нужно убить дочь бывшего адвоката мистера Эдисона. Но Лукас не справляется с заданием, сам становится целью и теперь они вместе вынуждены бежать от убийц Эдисона.


rating

Файл
Формат: MKV
Качество: WEB-DLRip (AVC)
Видео: MPEG-4 AVC, 1024x428 (2.40:1), ~ 1410 kbps avg, 23.976 FPS, 0.134 bit/pixel
Аудио1: AC-3, 48.0 KHz, 5.1 ch, 384 Kbps, CBR (Russian) iTunes
Аудио2: AC-3, 48.0 KHz, 5.1 ch, 384 Kbps, CBR (Russian) BadBajo
Аудио3: AC-3, 48.0 KHz, 5.1 ch, 384 Kbps, CBR (English)
General
Unique ID : 224665564516737205071190333091399819743 (0xA90503898BEE70B7A7224C2601BF61DF)
Complete name : D:\The.Hunters.Prayer.2017.2xRus.WEB-DLRip.AVC.ExKinoRay.mkv
Format : Matroska
Format version : Version 2
File size : 1.63 GiB
Duration : 1 h 31 min
Overall bit rate : 2 550 kb/s
Movie name : Hunter's Prayer (2017) from ExKinoRay
Encoded date : UTC 2017-06-21 23:45:51
Writing application : mkvmerge v5.6.0 ('Kenya Kane') built on May 27 2012 16:44:04
Writing library : libebml v1.2.3 + libmatroska v1.3.0

Video
ID : 1
Format : AVC
Format/Info : Advanced Video Codec
Format profile : High@L4.1
Format settings, CABAC : Yes
Format settings, ReFrames : 12 frames
Codec ID : V_MPEG4/ISO/AVC
Duration : 1 h 31 min
Bit rate : 1 410 kb/s
Width : 1 024 pixels
Height : 428 pixels
Display aspect ratio : 2.40:1
Frame rate mode : Constant
Frame rate : 23.976 (24000/1001) FPS
Color space : YUV
Chroma subsampling : 4:2:0
Bit depth : 8 bits
Scan type : Progressive
Bits/(Pixel*Frame) : 0.134
Stream size : 881 MiB (53%)
Title : Enigma
Writing library : x264 core 144 r2525 40bb568
Encoding settings : cabac=1 / ref=12 / deblock=1:-3:-3 / analyse=0x3:0x113 / me=umh / subme=10 / psy=1 / psy_rd=1.05:0.10 / mixed_ref=1 / me_range=32 / chroma_me=1 / trellis=2 / 8x8dct=1 / cqm=0 / deadzone=21,11 / fast_pskip=1 / chroma_qp_offset=-3 / threads=12 / lookahead_threads=3 / sliced_threads=0 / nr=0 / decimate=0 / interlaced=0 / bluray_compat=0 / constrained_intra=0 / bframes=10 / b_pyramid=2 / b_adapt=2 / b_bias=0 / direct=3 / weightb=1 / open_gop=0 / weightp=2 / keyint=240 / keyint_min=23 / scenecut=40 / intra_refresh=0 / rc_lookahead=40 / rc=2pass / mbtree=0 / bitrate=1410 / ratetol=1.0 / qcomp=0.60 / qpmin=0 / qpmax=51 / qpstep=4 / cplxblur=20.0 / qblur=0.5 / vbv_maxrate=50000 / vbv_bufsize=62500 / nal_hrd=none / filler=0 / ip_ratio=1.40 / pb_ratio=1.30 / aq=1:1.00
Default : Yes
Forced : No
Color range : Limited
Color primaries : BT.709
Transfer characteristics : BT.709
Matrix coefficients : BT.709

Audio #1
ID : 2
Format : AC-3
Format/Info : Audio Coding 3
Mode extension : CM (complete main)
Format settings, Endianness : Big
Codec ID : A_AC3
Duration : 1 h 31 min
Bit rate mode : Constant
Bit rate : 384 kb/s
Channel(s) : 6 channels
Channel positions : Front: L C R, Side: L R, LFE
Sampling rate : 48.0 kHz
Frame rate : 31.250 FPS (1536 spf)
Compression mode : Lossy
Stream size : 251 MiB (15%)
Title : iTunes
Language : Russian
Default : No
Forced : No

Audio #2
ID : 3
Format : AC-3
Format/Info : Audio Coding 3
Mode extension : CM (complete main)
Format settings, Endianness : Big
Codec ID : A_AC3
Duration : 1 h 31 min
Bit rate mode : Constant
Bit rate : 384 kb/s
Channel(s) : 6 channels
Channel positions : Front: L C R, Side: L R, LFE
Sampling rate : 48.0 kHz
Frame rate : 31.250 FPS (1536 spf)
Compression mode : Lossy
Stream size : 251 MiB (15%)
Title : AVO (BadBajo)
Language : Russian
Default : No
Forced : No

Audio #3
ID : 4
Format : AC-3
Format/Info : Audio Coding 3
Mode extension : CM (complete main)
Format settings, Endianness : Big
Codec ID : A_AC3
Duration : 1 h 31 min
Bit rate mode : Constant
Bit rate : 384 kb/s
Channel(s) : 6 channels
Channel positions : Front: L C R, Side: L R, LFE
Sampling rate : 48.0 kHz
Frame rate : 31.250 FPS (1536 spf)
Compression mode : Lossy
Stream size : 251 MiB (15%)
Language : English
Default : No
Forced : No

Text
ID : 5
Format : UTF-8
Codec ID : S_TEXT/UTF8
Codec ID/Info : UTF-8 Plain Text
Title : Full (colored)
Language : English
Default : No
Forced : No

Menu
00:00:00.000 : en:Opening Sequence
00:05:34.000 : en:You Make This Yourself?
00:11:19.000 : en:Hired To Kill You
00:18:01.000 : en:Claustrophobic
00:23:18.000 : en:Well Protected
00:28:18.000 : en:Professional Assassin
00:34:05.000 : en:Need Your Strength
00:39:25.000 : en:Her Name's Dani
00:44:38.000 : en:Indestructible
00:50:55.000 : en:How Do You Kill
00:57:15.000 : en:Are You Afraid
01:02:17.000 : en:So Much Trouble
01:07:11.000 : en:The Airport
01:12:38.000 : en:Who I Am
01:18:48.000 : en:Stay With Me
01:23:35.000 : en:End Credits
Релиз от:

Автор релиза: pb.wtf



Скачать Время псов через торрент http://s019.radikal.ru/i610/1705/e3/011c05630f91.jpg Скачать фильм Время псов через торрент бесплантно в хорошем качестве Описание: Чтобы преподать урок своему работнику, крупный бизнесмен мистер Эдисон, нанимает киллера по имени Лукас. Лукасу нужно убить дочь ... 9.6 10 10
Info! Золотая раздача, скачанное не засчитывается.
Торрент: Зарегистрирован [2017-06-22 00:35] · скачан: 384 раз
Статус: √ проверено
Размер: 1.63 GB
Как cкачать? Как скачать Время псов через торрент | UTorrent

28-11-2019 20:33  

Отключить всю рекламу на сайте

22-06-2017 10:10 Время псов Скачать торрент  

Вот теперь и посмотрим,спасибо!pb.wtf



    Дорогой пользователь! Огромная просьба, поблагодарите релизера, оцените раздачу и оставьте свои комментарий, если Вы скачали Время псов через торрент бесплатно! Внесите свою лепту в развитие PiratBit!
    Комментировать посты могут только пользователи прошедшие не сложную регистрацию
    Показать сообщения:    

    Время псов через торрент
    Скачать бесплатно Время псов
    Время псов скачать торрент
    Время псов смотреть онлайн
    Cкачать фильм Время псов бесплатно
    Время псов скачать торрент в хорошем качестве
    Время псов смотреть онлайн бесплатно в хорошем качестве


    Вы не можете начинать темы
    Вы не можете отвечать на сообщения
    Вы не можете редактировать свои сообщения
    Вы не можете удалять свои сообщения
    Вы не можете голосовать в опросах
    Вы не можете прикреплять файлы к сообщениям
    Вы можете скачивать файлы