Ссылка на приватное зеркало всего за 1$. Внимание количество ограничено!!!

iTunes

iTunes

iTunes

1

iTunes

iTunes

iTunes

iTunes

iTunes

30
pack

$ от Little Big

ВАЖНО

!!Акция!!

Alien_RageХит недели

RePack

Resident Evil 21

ИГРА 18+

pack

RePack

jed

!!Акция!!

Alien_Rage

RePack

fifa19

RePack

Assassins Creed: Odyssey

RePack

NEED FOR SPEED™ PAYBACK

4 сезон

9 сезон

Бесстыжие 9 сезон

Все сериалы

все сериалы на PB.wtf

RePack

FAR CRY 5
  

Время псов / Hunter's Prayer (Джонатан Мостоу) [2017, Боевик, WEB-DL 720p] Dub [iTunes], VO [BadBajo] - ExKinoRay pb.wtf

Время псов через торрент pb.wtf

Размер: 2.9 GB | Добавлен: 3 года назад | Торрент скачан:154 раза
Скачать  

22-06-2017 01:02 Время псов Скачать торрент  

Информация о фильме
Название: Время псов
Оригинальное название: Hunter's Prayer
Год выпуска: 2017
Страна: Германия
Студия: Apollo Media, FilmEngine, Full Clip Productions, HP Yorkshire Limited, Maple Leaf Films, Screen Yorkshire, Vandal Entertainment
Жанр: Боевик
Продолжительность: 01:30:50
Перевод: Дублированный | iTunes
Любительский одноголосый | BadBajo
Примечание: Релиз без рекламы
Режиссер: Джонатан Мостоу
В ролях: Сэм Уортингтон, Мартин Компстон, Одейя Раш, Вероника Эчеги, Аллен Лич, Эми Ландекер, Дин Джаггер III, Катя Бокор, Сэм Каллингворт

Описание:
Чтобы преподать урок своему работнику, крупный бизнесмен мистер Эдисон, нанимает киллера по имени Лукас. Лукасу нужно убить дочь бывшего адвоката мистера Эдисона. Но Лукас не справляется с заданием, сам становится целью и теперь они вместе вынуждены бежать от убийц Эдисона.


rating

Файл
Формат: MKV
Качество: WEB-DL 720p
Видео: MPEG-4 AVC, 1280x536, 3414 Kbit/s, 23.976 fps
Звук:
Аудио #01: 48 kHz, AC3, 5.1, 384 Kbps | iTunes | RUS
Аудио #02: 48 kHz, AC3, 5.1, 384 Kbps | BadBajo | RUS
Аудио #03: 48 kHz, AC3, 5.1, 384 Kbps | Оригинал | ENG

General
Unique ID : 251834432854060390375428754809226849486 (0xBD758C2AAC55FDC287C274453AF0ECCE)
Complete name : C:UsersbattiDesktopThe.Hunters.Prayer.2017.D.AVO.WEB-DL.720p.ExKinoRay.mkv
Format : Matroska
Format version : Version 4 / Version 2
File size : 2.90 GiB
Duration : 1 h 31 min
Overall bit rate mode : Variable
Overall bit rate : 4 542 kb/s
Encoded date : UTC 2017-06-21 22:20:06
Writing application : mkvmerge v12.0.0 ('Trust / Lust') 64bit
Writing library : libebml v1.3.4 + libmatroska v1.4.5

Video
ID : 1
Format : AVC
Format/Info : Advanced Video Codec
Format profile : High@L4.1
Format settings, CABAC : Yes
Format settings, ReFrames : 4 frames
Codec ID : V_MPEG4/ISO/AVC
Duration : 1 h 30 min
Bit rate mode : Variable
Bit rate : 3 414 kb/s
Maximum bit rate : 40.0 Mb/s
Width : 1 280 pixels
Height : 536 pixels
Display aspect ratio : 2.40:1
Frame rate mode : Constant
Frame rate : 23.976 (24000/1001) FPS
Color space : YUV
Chroma subsampling : 4:2:0
Bit depth : 8 bits
Scan type : Progressive
Bits/(Pixel*Frame) : 0.208
Stream size : 2.17 GiB (75%)
Language : English
Default : Yes
Forced : No
Color range : Limited
Color primaries : BT.709
Transfer characteristics : BT.709
Matrix coefficients : BT.709

Audio #1
ID : 2
Format : AC-3
Format/Info : Audio Coding 3
Format settings, Endianness : Big
Codec ID : A_AC3
Duration : 1 h 31 min
Bit rate mode : Constant
Bit rate : 384 kb/s
Channel(s) : 6 channels
Channel positions : Front: L C R, Side: L R, LFE
Sampling rate : 48.0 kHz
Frame rate : 31.250 FPS (1536 spf)
Bit depth : 16 bits
Compression mode : Lossy
Stream size : 251 MiB (8%)
Title : iTunes
Language : Russian
Service kind : Complete Main
Default : Yes
Forced : No

Audio #2
ID : 3
Format : AC-3
Format/Info : Audio Coding 3
Format settings, Endianness : Big
Codec ID : A_AC3
Duration : 1 h 30 min
Bit rate mode : Constant
Bit rate : 384 kb/s
Channel(s) : 6 channels
Channel positions : Front: L C R, Side: L R, LFE
Sampling rate : 48.0 kHz
Frame rate : 31.250 FPS (1536 spf)
Bit depth : 16 bits
Compression mode : Lossy
Stream size : 249 MiB (8%)
Title : AVO
Language : Russian
Service kind : Complete Main
Default : No
Forced : No

Audio #3
ID : 4
Format : AC-3
Format/Info : Audio Coding 3
Format settings, Endianness : Big
Codec ID : A_AC3
Duration : 1 h 30 min
Bit rate mode : Constant
Bit rate : 384 kb/s
Channel(s) : 6 channels
Channel positions : Front: L C R, Side: L R, LFE
Sampling rate : 48.0 kHz
Frame rate : 31.250 FPS (1536 spf)
Bit depth : 16 bits
Compression mode : Lossy
Stream size : 249 MiB (8%)
Title : Original
Language : English
Service kind : Complete Main
Default : No
Forced : No

Menu
00:00:00.000 : en:Opening Sequence
00:05:34.000 : en:You Make This Yourself?
00:11:19.000 : en:Hired To Kill You
00:18:01.000 : en:Claustrophobic
00:23:18.000 : en:Well Protected
00:28:18.000 : en:Professional Assassin
00:34:05.000 : en:Need Your Strength
00:39:25.000 : en:Her Name's Dani
00:44:38.000 : en:Indestructible
00:50:55.000 : en:How Do You Kill
00:57:15.000 : en:Are You Afraid
01:02:17.000 : en:So Much Trouble
01:07:11.000 : en:The Airport
01:12:38.000 : en:Who I Am
01:18:48.000 : en:Stay With Me
01:23:35.000 : en:End Credits
Релиз от: Автор релиза: pb.wtf



Скачать Время псов через торрент http://s019.radikal.ru/i610/1705/e3/011c05630f91.jpg Скачать фильм Время псов через торрент бесплантно в хорошем качестве Описание: Чтобы преподать урок своему работнику, крупный бизнесмен мистер Эдисон, нанимает киллера по имени Лукас. Лукасу нужно убить дочь ... 8 10 6
Торрент: Зарегистрирован [2017-06-22 01:02] · скачан: 154 раз
Статус: √ проверено
Размер: 2.9 GB
Как cкачать? Как скачать Время псов через торрент | qTorrent

28-11-2019 20:33  

Отключить всю рекламу на сайте

    Дорогой пользователь! Огромная просьба, поблагодарите релизера, оцените раздачу и оставьте свои комментарий, если Вы скачали Время псов через торрент бесплатно! Внесите свою лепту в развитие PiratBit!
    Комментировать посты могут только пользователи прошедшие не сложную регистрацию
    Показать сообщения:    

    Время псов через торрент
    Скачать бесплатно Время псов
    Время псов скачать торрент
    Время псов смотреть онлайн
    Cкачать фильм Время псов бесплатно
    Время псов скачать торрент в хорошем качестве
    Время псов смотреть онлайн бесплатно в хорошем качестве


    Вы не можете начинать темы
    Вы не можете отвечать на сообщения
    Вы не можете редактировать свои сообщения
    Вы не можете удалять свои сообщения
    Вы не можете голосовать в опросах
    Вы не можете прикреплять файлы к сообщениям
    Вы можете скачивать файлы