Ссылка на приватное зеркало нашего сайта всего за 1$. Внимание количество ограничено!!!

2 сезон

iTunes

1 сезон

1

2 сезон

2 сезон

iTunes

1 сезон

RePack

30

Ultimate

ВАЖНО

ИГРА 18+

pack

RePack

MK11
pack

Забери бонус

RePack

jed

!!Акция!!

Alien_Rage

RePack

fifa19

RePack

Assassins Creed: Odyssey

RePack

NEED FOR SPEED™ PAYBACK

4 сезон

9 сезон

Бесстыжие 9 сезон

Все сериалы

все сериалы на PB.wtf

RePack

FAR CRY 5
  

100 метров / 100 metros (Марсель Баррена) [ 2016 г., Драма, BDRip 720p] [VO] (BadBajo) pb.wtf

100 метров через торрент pb.wtf

Размер: 3.83 GB | Добавлен: 3 года 5 мес. назад | Торрент скачан:138 раз
Скачать  

22-06-2017 01:38 100 метров Скачать торрент  

100 метров / 100 metros / 100 metersГод выпуска: 2016
Страна: Испания, Португалия
Жанр: драма, комедия
Продолжительность: 01:48:45
Перевод: Любительский (одноголосый закадровый) | Важенин Андрей (BadBajo)

Режиссёр: Марсель Баррена

В ролях: Дэни Ровира, Карра Элехальде, Александра Хименес, Давид Вердагер, Клара Сегура, Альба Рибас, Бруно Бергондзини, Рикарду Перейра, Мануэла Коуту, Марк Балагер

Описание: Фильм о человеке, которому поставили диагноз «рассеянный склероз», но он не сдался и прошел триатлон. В итоге он проплыл 4,8 километра, проехал на велосипеде 180 километров и затем пробежал 42 километра. До этого он не мог пройти и ста метров…

rating

Качество: BDRip 720p
Контейнер: MKV
Видео: MPEG-4 AVC Video / 3500 kbps / 1280x536p / 24,000 fps / 16:9 / High Profile 4.1
Аудио 1: Rus / DTS / 5.1 / 48 kHz / 768 kbps / 16-bit | VO Важенин Андрей (BadBajo)
Аудио 2: Spa / DTS / 5.1 / 48 kHz / 768 kbps / 16-bit | Original
Субтитры 1: Rus / SRT | Full Важенин Андрей (BadBajo)
Субтитры 2: Spa / SRT | SDH
Субтитры 3: Eng / SRT | Full
Главы: Да

Семпл

Без какой-либо рекламы
Z:100 Metros (100 Meters) 2016 1xRus Spa Transfer BDRip 720p HDRussia.mkv
General
Unique ID : 242295671876870727239574202003412145547 (0xB64872F0C449542FAB8A26F14F6ED58B)
Complete name : Z:100 Metros (100 Meters) 2016 1xRus Spa Transfer BDRip 720p HDRussia.mkv
Format : Matroska
Format version : Version 4 / Version 2
File size : 3.83 GiB
Duration : 1h 48mn
Overall bit rate : 5 037 Kbps
Movie name : 100 Metros (100 Meters) 2016 1xRus Spa Transfer BDRip 720p HDRussia
Encoded date : UTC 2017-05-27 20:50:24
Writing application : mkvmerge v12.0.0 ('Trust / Lust') 64bit
Writing library : libebml v1.3.4 + libmatroska v1.4.5
DURATION : 01:44:43.917000000
NUMBER_OF_FRAMES : 1259
NUMBER_OF_BYTES : 35154
_STATISTICS_WRITING_APP : mkvmerge v12.0.0 ('Trust / Lust') 64bit
_STATISTICS_WRITING_DATE_UTC : 2017-05-27 20:50:24
_STATISTICS_TAGS : BPS DURATION NUMBER_OF_FRAMES NUMBER_OF_BYTES
Attachment : Yes
Video #1
ID : 1
Format : AVC
Format/Info : Advanced Video Codec
Format profile : High@L4.1
Format settings, CABAC : Yes
Format settings, ReFrames : 12 frames
Codec ID : V_MPEG4/ISO/AVC
Duration : 1h 48mn
Bit rate : 3 500 Kbps
Width : 1 280 pixels
Height : 536 pixels
Display aspect ratio : 2.40:1
Frame rate mode : Constant
Frame rate : 24.000 fps
Color space : YUV
Chroma subsampling : 4:2:0
Bit depth : 8 bits
Scan type : Progressive
Bits/(Pixel*Frame) : 0.213
Stream size : 2.58 GiB (68%)
Title : 100 Metros (100 Meters) 2016 1xRus Spa Transfer BDRip 720p HDRussia
Writing library : x264 core 148 r2744 b97ae06
Encoding settings : cabac=1 / ref=12 / deblock=1:-3:-3 / analyse=0x3:0x133 / me=umh / subme=9 / psy=1 / psy_rd=1.05:0.00 / mixed_ref=1 / me_range=32 / chroma_me=1 / trellis=2 / 8x8dct=1 / cqm=0 / deadzone=21,11 / fast_pskip=0 / chroma_qp_offset=-2 / threads=6 / lookahead_threads=1 / sliced_threads=0 / nr=0 / decimate=0 / interlaced=0 / bluray_compat=0 / constrained_intra=0 / bframes=16 / b_pyramid=2 / b_adapt=2 / b_bias=0 / direct=3 / weightb=1 / open_gop=0 / weightp=2 / keyint=240 / keyint_min=24 / scenecut=40 / intra_refresh=0 / rc_lookahead=60 / rc=2pass / mbtree=0 / bitrate=3500 / ratetol=1.0 / qcomp=0.70 / qpmin=10 / qpmax=51 / qpstep=4 / cplxblur=20.0 / qblur=0.5 / vbv_maxrate=50000 / vbv_bufsize=50000 / nal_hrd=none / filler=0 / ip_ratio=1.40 / pb_ratio=1.30 / aq=1:0.85
Language : Spanish
Default : Yes
Forced : No
DURATION : 01:48:46.334000000
NUMBER_OF_FRAMES : 156632
NUMBER_OF_BYTES : 2853135351
_STATISTICS_WRITING_APP : mkvmerge v12.0.0 ('Trust / Lust') 64bit
_STATISTICS_WRITING_DATE_UTC : 2017-05-27 20:50:24
_STATISTICS_TAGS : BPS DURATION NUMBER_OF_FRAMES NUMBER_OF_BYTES
Audio #2
ID : 2
Format : DTS
Format/Info : Digital Theater Systems
Mode : 16
Format settings, Endianness : Big
Codec ID : A_DTS
Duration : 1h 48mn
Bit rate mode : Constant
Bit rate : 768 Kbps
Channel count : 6 channels
Channel positions : Front: L C R, Side: L R, LFE
Sampling rate : 48.0 KHz
Bit depth : 16 bits
Compression mode : Lossy
Stream size : 598 MiB (15%)
Title : VO Важенин Андрей (BadBajo) DTS 5.1 768
Language : Russian
Default : Yes
Forced : No
Audio #3
ID : 3
Format : DTS
Format/Info : Digital Theater Systems
Mode : 16
Format settings, Endianness : Big
Codec ID : A_DTS
Duration : 1h 48mn
Bit rate mode : Constant
Bit rate : 768 Kbps
Channel count : 6 channels
Channel positions : Front: L C R, Side: L R, LFE
Sampling rate : 48.0 KHz
Bit depth : 16 bits
Compression mode : Lossy
Stream size : 598 MiB (15%)
Title : Original DTS 5.1 768
Language : Spanish
Default : No
Forced : No
Text #4
ID : 4
Format : UTF-8
Codec ID : S_TEXT/UTF8
Codec ID/Info : UTF-8 Plain Text
Title : Full Важенин Андрей (BadBajo)
Language : Russian
Default : No
Forced : No
Text #5
ID : 5
Format : UTF-8
Codec ID : S_TEXT/UTF8
Codec ID/Info : UTF-8 Plain Text
Title : SDH
Language : Spanish
Default : No
Forced : No
Text #6
ID : 6
Format : UTF-8
Codec ID : S_TEXT/UTF8
Codec ID/Info : UTF-8 Plain Text
Title : Full
Language : English
Default : No
Forced : No
Menu
00:00:00.000 : es:Chapter 01
00:10:38.917 : es:Chapter 02
00:20:55.708 : es:Chapter 03
00:28:59.458 : es:Chapter 04
00:41:18.542 : es:Chapter 05
00:51:34.875 : es:Chapter 06
01:07:29.208 : es:Chapter 07
01:17:26.000 : es:Chapter 08
01:28:40.625 : es:Chapter 09
pb.wtf



Скачать 100 метров через торрент http://i95.fastpic.ru/big/2017/0527/33/63510f0d680a5e2c315aea654b88bb33.jpg Скачать фильм 100 метров через торрент бесплантно в хорошем качестве Описание: Фильм о человеке, которому поставили диагноз «рассеянный склероз», но он не сдался и прошел триатлон. В итоге он проплыл 4,8 ... 7.8 10 4
Торрент: Зарегистрирован [2017-06-22 01:38] · скачан: 138 раз
Статус: √ проверено
Размер: 3.83 GB
Как cкачать? Как скачать 100 метров через торрент | qTorrent

% Раздел Тема Автор DL S | L
Фильмы 2016 [DVDrip, WEB-DLRip, HDrip] (DUB, MVO) [ 1.57 GB ] 100 метров / 100 metros [2016 BDRip-AVC] MVO ['СВ Студия'] bober100 Скачать
1 | 0
Фильмы 2016 [DVDrip, WEB-DLRip, HDrip] (DUB, MVO) [ 1.46 GB ] 100 метров / 100 metros [2016 BDRip] MVO ['СВ Студия'] bober100 Скачать
1 | 0
Фильмы 2016 (Звук TS, Cam, VO, DVO) [ 1.93 GB ] 100 метров / 100 metros [ 2016 BDRip-AVC] [VO] - ExKinoRay Enigma2010 Скачать
1 | 0

28-11-2019 20:33  

Отключить всю рекламу на сайте

27-06-2017 19:35 100 метров Скачать торрент  

хороший фильм. мне понравилсяpb.wtf



    Дорогой пользователь! Огромная просьба, поблагодарите релизера, оцените раздачу и оставьте свои комментарий, если Вы скачали 100 метров через торрент бесплатно! Внесите свою лепту в развитие PiratBit!
    Комментировать посты могут только пользователи прошедшие не сложную регистрацию
    Показать сообщения:    

    100 метров через торрент
    Скачать бесплатно 100 метров
    100 метров скачать торрент
    100 метров смотреть онлайн
    Cкачать фильм 100 метров бесплатно
    100 метров скачать торрент в хорошем качестве
    100 метров смотреть онлайн бесплатно в хорошем качестве


    Вы не можете начинать темы
    Вы не можете отвечать на сообщения
    Вы не можете редактировать свои сообщения
    Вы не можете удалять свои сообщения
    Вы не можете голосовать в опросах
    Вы не можете прикреплять файлы к сообщениям
    Вы можете скачивать файлы