Ссылка на приватное зеркало нашего сайта всего за 1$. Внимание количество ограничено!!!

2 сезон

iTunes

1 сезон

1

iTunes

iTunes

iTunes

1 сезон

RePack

30

ИГРА 18+

pack

ВАЖНО

!!Акция!!

Alien_RageХит недели

RePack

MK11
pack

Забери бонус

RePack

jed

!!Акция!!

Alien_Rage

RePack

fifa19

RePack

Assassins Creed: Odyssey

RePack

NEED FOR SPEED™ PAYBACK

4 сезон

9 сезон

Бесстыжие 9 сезон

Все сериалы

все сериалы на PB.wtf

RePack

FAR CRY 5
  

Аспен. Экстрим / Aspen Extreme (Патрик Хэсбург) [1993, боевик, драма, BDRip 720p by msltel] DVO, AVO pb.wtf

Аспен. Экстрим через торрент pb.wtf

Размер: 5.43 GB | Добавлен: 3 года 4 мес. назад | Торрент скачан:20 раз
Скачать  

22-06-2017 07:51 Аспен. Экстрим Скачать торрент  

Название: Аспен. Экстрим
Оригинальное название: Aspen Extreme
Год выпуска: 1993
Страна: США
Жанр: боевик, драма
Продолжительность: 01:58:00
Перевод: профессиональный двухголосый, авторский

Режиссёр: Патрик Хэсбург

В ролях: Пол Гросс, Питер Берг, Финола Хьюз, Тери Поло, Уильям Расс, Тревор Ив, Мартин Кемп, Стюарт Финлэй-МакЛеннан, Тони Гриффин, Джули Ройер

Описание: Аспен — популярный американский горный курорт. Закадычные друзья Ти Джей и Деке приезжают сюда, чтобы сделать головокружительную карьеру лыжных инструкторов и вкусить всех радостей местной жизни, среди которых очаровательные состоятельные туристки и экстремальный спорт. Популярный у женщин Ти Джей обнаруживает себя перед мучительным выбором между любовью и богатством, а неудачливый в делах Деке опускается до транспортировки наркотиков. Герои оказываются перед лицом сурового жизненного испытания, которое может похоронить их дружбу...



Качество: BDRip 720p
Формат: MKV
Видео: MPEG-4 AVC, 6015 Kбит/с, 1280x692
Аудио 1: русский, AC3, 192 kbps, 2 ch, 48 kHz [профессиональный двухголосый, Видеосервис]
Аудио 2: русский, AC3, 192 kbps, 2 ch, 48 kHz [авторский, Леонид Володарский]
Аудио 3: английский, AC3, 192 kbps, 2 ch, 48 kHz [оригинал]
Субтитры: английские
Имеются неименованные главы/чаптеры.
Общее
Уникальный идентификатор : 230252722588721237862811438906358746553 (0xAD390FB2BC2CC91FA0031A876849CDB9)
Полное имя : D:\Video\Аспен. Экстрим.1993.BDRip.720p by msltel.mkv
Формат : Matroska
Версия формата : Version 4 / Version 2
Размер файла : 5,43 Гбайт
Продолжительность : 1 ч. 58 м.
Общий поток : 6593 Кбит/сек
Название фильма : Rip by msltel
Дата кодирования : UTC 2017-06-21 13:56:37
Программа кодирования : mkvmerge v8.2.0 ('World of Adventure') 64bit
Библиотека кодирования : libebml v1.3.1 + libmatroska v1.4.2

Видео
Идентификатор : 1
Формат : AVC
Формат/Информация : Advanced Video Codec
Профиль формата : High@L4.1
Параметр CABAC формата : Да
Параметр ReFrames формата : 9 кадров
Идентификатор кодека : V_MPEG4/ISO/AVC
Продолжительность : 1 ч. 57 м.
Битрейт : 6015 Кбит/сек
Ширина : 1280 пикселей
Высота : 692 пикселя
Соотношение сторон : 1,85:1
Режим частоты кадров : Постоянный
Частота кадров : 23,976 (24000/1001) кадра/сек
Цветовое пространство : YUV
Субдискретизация насыщенности : 4:2:0
Битовая глубина : 8 бит
Тип развёртки : Прогрессивная
Бит/(Пиксели*Кадры) : 0.283
Размер потока : 4,96 Гбайт (91%)
Библиотека кодирования : x264 core 146 r2538 121396c
Настройки программы : cabac=1 / ref=9 / deblock=1:-3:-2 / analyse=0x3:0x113 / me=umh / subme=11 / psy=1 / psy_rd=1.00:0.15 / mixed_ref=1 / me_range=32 / chroma_me=1 / trellis=2 / 8x8dct=1 / cqm=0 / deadzone=21,11 / fast_pskip=0 / chroma_qp_offset=-3 / threads=6 / lookahead_threads=1 / sliced_threads=0 / nr=0 / decimate=1 / interlaced=0 / bluray_compat=0 / constrained_intra=0 / bframes=11 / b_pyramid=2 / b_adapt=2 / b_bias=0 / direct=1 / weightb=1 / open_gop=0 / weightp=2 / keyint=230 / keyint_min=23 / scenecut=40 / intra_refresh=0 / rc_lookahead=40 / rc=crf / mbtree=0 / crf=19.0 / qcomp=0.60 / qpmin=0 / qpmax=69 / qpstep=4 / vbv_maxrate=62500 / vbv_bufsize=78125 / crf_max=0.0 / nal_hrd=none / filler=0 / ip_ratio=1.40 / pb_ratio=1.30 / aq=1:1.00
Язык : English
Default : Да
Forced : Нет

Аудио #1
Идентификатор : 2
Формат : AC-3
Формат/Информация : Audio Coding 3
Параметр Endianness формата : Big
Идентификатор кодека : A_AC3
Продолжительность : 1 ч. 58 м.
Вид битрейта : Постоянный
Битрейт : 192 Кбит/сек
Каналы : 2 канала
Расположение каналов : Front: L R
Частота : 48,0 КГц
Частота кадров : 31,250 кадров/сек (1536 spf)
Битовая глубина : 16 бит
Метод сжатия : С потерями
Размер потока : 162 Мбайт (3%)
Заголовок : DVO (Видеосервис)
Язык : Russian
ServiceKind/String : Complete Main
Default : Да
Forced : Нет

Аудио #2
Идентификатор : 3
Формат : AC-3
Формат/Информация : Audio Coding 3
Параметр Endianness формата : Big
Идентификатор кодека : A_AC3
Продолжительность : 1 ч. 58 м.
Вид битрейта : Постоянный
Битрейт : 192 Кбит/сек
Каналы : 2 канала
Расположение каналов : Front: L R
Частота : 48,0 КГц
Частота кадров : 31,250 кадров/сек (1536 spf)
Битовая глубина : 16 бит
Метод сжатия : С потерями
Размер потока : 162 Мбайт (3%)
Заголовок : AVO (Леонид Володарский)
Язык : Russian
ServiceKind/String : Complete Main
Default : Нет
Forced : Нет

Аудио #3
Идентификатор : 4
Формат : AC-3
Формат/Информация : Audio Coding 3
Параметр Endianness формата : Big
Идентификатор кодека : A_AC3
Продолжительность : 1 ч. 58 м.
Вид битрейта : Постоянный
Битрейт : 192 Кбит/сек
Каналы : 2 канала
Расположение каналов : Front: L R
Частота : 48,0 КГц
Частота кадров : 31,250 кадров/сек (1536 spf)
Битовая глубина : 16 бит
Метод сжатия : С потерями
Размер потока : 162 Мбайт (3%)
Заголовок : original
Язык : English
ServiceKind/String : Complete Main
Default : Нет
Forced : Нет

Текст
Идентификатор : 5
Формат : UTF-8
Идентификатор кодека : S_TEXT/UTF8
Идентификатор кодека/Информация : UTF-8 Plain Text
Продолжительность : 1 ч. 53 м.
Битрейт : 45 бит/сек
ElementCount : 829
Размер потока : 38,0 Кбайт (0%)
Заголовок : английские
Язык : English
Default : Нет
Forced : Нет

Меню
00:00:00.000 : :Chapter 01
00:09:22.310 : :Chapter 02
00:16:49.008 : :Chapter 03
00:23:12.391 : :Chapter 04
00:29:55.794 : :Chapter 05
00:38:08.703 : :Chapter 06
00:45:48.036 : :Chapter 07
00:53:56.483 : :Chapter 08
01:01:40.530 : :Chapter 09
01:07:15.113 : :Chapter 10
01:14:50.068 : :Chapter 11
01:20:41.211 : :Chapter 12
01:30:33.427 : :Chapter 13
01:37:05.819 : :Chapter 14
01:46:24.002 : :Chapter 15
pb.wtf



Скачать Аспен. Экстрим через торрент http://s019.radikal.ru/i636/1706/af/50ba430e56f4.jpg Скачать фильм Аспен. Экстрим через торрент бесплантно в хорошем качестве Описание: Аспен — популярный американский горный курорт. Закадычные друзья Ти Джей и Деке приезжают сюда, чтобы сделать головокружительную ... 10 10 2
Info! Золотая раздача, скачанное не засчитывается.
Торрент: Зарегистрирован [2017-06-22 07:51] · скачан: 20 раз
Статус: √ проверено
Размер: 5.43 GB
Как cкачать? Как скачать Аспен. Экстрим через торрент | qTorrent

% Раздел Тема Автор DL S | L
Фильмы [HD 720p, 1080p] (Хороший звук DUB, MVO) [ 14.17 GB ] Аспен. Экстрим / Aspen Extreme [1993 BDRip 1080p by msltel] DVO AVO msltel Скачать
1 | 0

28-11-2019 20:33  

Отключить всю рекламу на сайте

24-07-2017 15:30 Аспен. Экстрим Скачать торрент  

Это не боевик вообще! Про жизнь, иногда драматичную, но фильм хороший.pb.wtf



    Дорогой пользователь! Огромная просьба, поблагодарите релизера, оцените раздачу и оставьте свои комментарий, если Вы скачали Аспен. Экстрим через торрент бесплатно! Внесите свою лепту в развитие PiratBit!
    Комментировать посты могут только пользователи прошедшие не сложную регистрацию
    Показать сообщения:    

    Аспен. Экстрим через торрент
    Скачать бесплатно Аспен. Экстрим
    Аспен. Экстрим скачать торрент
    Аспен. Экстрим смотреть онлайн
    Cкачать фильм Аспен. Экстрим бесплатно
    Аспен. Экстрим скачать торрент в хорошем качестве
    Аспен. Экстрим смотреть онлайн бесплатно в хорошем качестве


    Вы не можете начинать темы
    Вы не можете отвечать на сообщения
    Вы не можете редактировать свои сообщения
    Вы не можете удалять свои сообщения
    Вы не можете голосовать в опросах
    Вы не можете прикреплять файлы к сообщениям
    Вы можете скачивать файлы