Ссылка на приватное зеркало нашего сайта всего за 1$. Внимание количество ограничено!!!

2 сезон

iTunes

1 сезон

1

2 сезон

2 сезон

iTunes

1 сезон

RePack

30

Ultimate

ВАЖНО

ИГРА 18+

pack

RePack

MK11
pack

Забери бонус

RePack

jed

!!Акция!!

Alien_Rage

RePack

fifa19

RePack

Assassins Creed: Odyssey

RePack

NEED FOR SPEED™ PAYBACK

4 сезон

9 сезон

Бесстыжие 9 сезон

Все сериалы

все сериалы на PB.wtf

RePack

FAR CRY 5
  

Морган / Morgan (Люк Скотт) [2016, Ужасы, фантастика, триллер, драма, детектив, BD Remux 1080p] DUB [Лицензия] pb.wtf

Морган через торрент pb.wtf

Размер: 21.19 GB | Добавлен: 3 года 5 мес. назад | Торрент скачан:28 раз
Скачать  

22-06-2017 15:36 Морган Скачать торрент  

Морган / Morgan
Год выпуска: 2016
Страна: США
Жанр: Ужасы, фантастика, триллер, драма, детектив
Продолжительность: 01:31:52
Перевод: Дубляж [Лицензия]
Субтитры: Русские (forced, full), украинские (forced, full), английские (forced, full, SDH, SDH Colored)

Режиссер: Люк Скотт

rating

В ролях:

Кейт Мара, Аня Тейлор-Джой, Роуз Лесли, Майкл Йар, Тоби Джонс, Крис Салливан, Бойд Холбрук, Винетт Робинсон, Мишель Йео, Брайан Кокс

Описание:

Сотрудница по устранению аварий отправляется в отдаленный секретный филиал, где должна расследовать и оценить потери от ужасной катастрофы. На месте она узнает, что случившееся было вызвано, казалось бы, невинным «человеком», чье существование само по себе является опасной тайной.

Качество: BD Remux 1080p
Формат: MKV
Видео кодек: H.264
Аудио кодек: DTS/DTS-HD MA

Видео: 1920x1080, 27.6 Mbit/s, 23.976 fps
Аудио#1: 48 kHz, DTS, 5.1, 768 Kbps | Дублированный |
Аудио#2: 48 kHz, DTS-HD MA, 7.1, 4611 kbps | Оригинал |
скриншот   скриншот   скриншот   скриншот   скриншот  

General
Unique ID : 224627218140524630703656827964194184943 (0xA8FDA0EA3BD9BBF3B8263A8521B25EEF)
Complete name : F:VideoMorgan.2016.Lic.BDREMUX.1080p.ExKinoRay.mkv
Format : Matroska
Format version : Version 4 / Version 2
File size : 21.2 GiB
Duration : 1 h 31 min
Overall bit rate mode : Variable
Overall bit rate : 33.0 Mb/s
Encoded date : UTC 2017-06-21 19:07:03
Writing application : mkvmerge v12.0.0 ('Trust / Lust') 64bit
Writing library : libebml v1.3.4 + libmatroska v1.4.5

Video
ID : 1
Format : AVC
Format/Info : Advanced Video Codec
Format profile : High@L4.1
Format settings, CABAC : Yes
Format settings, ReFrames : 4 frames
Codec ID : V_MPEG4/ISO/AVC
Duration : 1 h 31 min
Bit rate mode : Variable
Bit rate : 27.6 Mb/s
Maximum bit rate : 29.5 Mb/s
Width : 1 920 pixels
Height : 1 080 pixels
Display aspect ratio : 16:9
Frame rate mode : Constant
Frame rate : 23.976 (24000/1001) FPS
Color space : YUV
Chroma subsampling : 4:2:0
Bit depth : 8 bits
Scan type : Progressive
Bits/(Pixel*Frame) : 0.556
Stream size : 17.7 GiB (84%)
Language : English
Default : No
Forced : No

Audio #1
ID : 2
Format : DTS
Format/Info : Digital Theater Systems
Mode : 16
Format settings, Endianness : Big
Codec ID : A_DTS
Duration : 1 h 31 min
Bit rate mode : Constant
Bit rate : 768 kb/s
Channel(s) : 6 channels
Channel positions : Front: L C R, Side: L R, LFE
Sampling rate : 48.0 kHz
Frame rate : 93.750 FPS (512 spf)
Bit depth : 24 bits
Compression mode : Lossy
Stream size : 505 MiB (2%)
Title : Dub [License]
Language : Russian
Default : Yes
Forced : No

Audio #2
ID : 3
Format : DTS
Format/Info : Digital Theater Systems
Format profile : MA / Core
Mode : 16
Format settings, Endianness : Big
Codec ID : A_DTS
Duration : 1 h 31 min
Bit rate mode : Variable / Constant
Bit rate : 4 611 kb/s / 1 509 kb/s
Channel(s) : 8 channels / 6 channels
Channel positions : Front: L C R, Side: L R, Back: L R, LFE / Front: L C R, Side: L R, LFE
Sampling rate : 48.0 kHz
Frame rate : 93.750 FPS (512 spf)
Bit depth : 24 bits
Compression mode : Lossless / Lossy
Stream size : 2.96 GiB (14%)
Title : Original
Language : English
Default : No
Forced : No

Text #1
ID : 4
Format : UTF-8
Codec ID : S_TEXT/UTF8
Codec ID/Info : UTF-8 Plain Text
Duration : 1 h 29 min
Bit rate : 1 b/s
Count of elements : 20
Stream size : 950 Bytes (0%)
Title : Forced [iTunes]
Language : Russian
Default : Yes
Forced : No

Text #2
ID : 5
Format : UTF-8
Codec ID : S_TEXT/UTF8
Codec ID/Info : UTF-8 Plain Text
Duration : 1 h 30 min
Bit rate : 72 b/s
Count of elements : 1101
Stream size : 48.2 KiB (0%)
Title : Full [iTunes]
Language : Russian
Default : No
Forced : No

Text #3
ID : 6
Format : UTF-8
Codec ID : S_TEXT/UTF8
Codec ID/Info : UTF-8 Plain Text
Duration : 1 h 29 min
Bit rate : 1 b/s
Count of elements : 27
Stream size : 1.27 KiB (0%)
Title : Forced [iTunes]
Language : Ukrainian
Default : No
Forced : No

Text #4
ID : 7
Format : UTF-8
Codec ID : S_TEXT/UTF8
Codec ID/Info : UTF-8 Plain Text
Duration : 1 h 30 min
Bit rate : 73 b/s
Count of elements : 1103
Stream size : 49.0 KiB (0%)
Title : Full [iTunes]
Language : Ukrainian
Default : No
Forced : No

Text #5
ID : 8
Format : UTF-8
Codec ID : S_TEXT/UTF8
Codec ID/Info : UTF-8 Plain Text
Duration : 42 min 54 s
Bit rate : 1 b/s
Count of elements : 14
Stream size : 372 Bytes (0%)
Title : Forced
Language : English
Default : No
Forced : No

Text #6
ID : 9
Format : UTF-8
Codec ID : S_TEXT/UTF8
Codec ID/Info : UTF-8 Plain Text
Duration : 1 h 30 min
Bit rate : 43 b/s
Count of elements : 1059
Stream size : 29.3 KiB (0%)
Title : Full
Language : English
Default : No
Forced : No

Text #7
ID : 10
Format : UTF-8
Codec ID : S_TEXT/UTF8
Codec ID/Info : UTF-8 Plain Text
Duration : 1 h 28 min
Bit rate : 54 b/s
Count of elements : 1262
Stream size : 35.5 KiB (0%)
Title : SDH
Language : English
Default : No
Forced : No

Text #8
ID : 11
Format : UTF-8
Codec ID : S_TEXT/UTF8
Codec ID/Info : UTF-8 Plain Text
Duration : 1 h 29 min
Bit rate : 75 b/s
Count of elements : 1385
Stream size : 49.4 KiB (0%)
Title : SDH (Colored)
Language : English
Default : No
Forced : No

Menu
00:00:00.000 : en:1
00:03:42.806 : en:2
00:07:22.108 : en:3
00:11:41.492 : en:4
00:16:04.046 : en:5
00:20:29.978 : en:6
00:25:36.034 : en:7
00:28:45.223 : en:8
00:34:19.974 : en:9
00:37:17.568 : en:10
00:40:45.817 : en:11
00:43:46.831 : en:12
00:48:13.931 : en:13
00:51:28.458 : en:14
00:54:45.696 : en:15
00:59:50.751 : en:16
01:03:44.109 : en:17
01:08:01.324 : en:18
01:11:43.462 : en:19
01:13:46.126 : en:20
01:17:03.406 : en:21
01:20:01.375 : en:22
01:22:32.234 : en:23
01:25:10.642 : en:24



pb.wtf



Скачать Морган через торрент http://s03.radikal.ru/i176/1612/88/0fa2999d9a2a.jpg Скачать фильм Морган через торрент бесплантно в хорошем качестве Описание: Сотрудница по устранению аварий отправляется в отдаленный секретный филиал, где должна расследовать и оценить потери от ужасной ... 10 10 6
Info! Золотая раздача, скачанное не засчитывается.
Торрент: Зарегистрирован [2017-06-22 15:36] · скачан: 28 раз
Статус: √ проверено
Размер: 21.19 GB
Как cкачать? Как скачать Морган через торрент | qTorrent

% Раздел Тема Автор DL S | L
Зарубежные сериалы [ 5.33 GB ] Хорошее место / В лучшем мире / The Good Place / Сезон 1 / Серии 1-13 из 13 [2016 WEB-DLRip-AVC] MVO [BaibaKo] GEKADOL Скачать
1 | 0
Фильмы [HD 720p, 1080p] (Хороший звук DUB, MVO) [ 3.69 GB ] Морган / Morgan [2016 BDRip 720p] Dub potroks Скачать
1 | 0
National Geographic [ 6.97 GB ] National Geographic: История о нас с Морганом Фрименом / The Story of Us with Morgan Freem / Серии: 1-6 из 6 [2017 документальный DVB] VO bober100 Скачать
1 | 0
Фильмы (Blu-ray, BD-Remux, HDDVD) [ 38.31 GB ] Морган / Morgan [2016 Blu-ray EUR 1080p] DUB sheker187 Скачать
1 | 0
Ultra HD (UHD: 2K, 4K, 8K) — видео сверхвысокой чёткости [ 26.18 GB ] Морган / Morgan [2016 UHD BDRemux 2160p] DUB [] bober100 Скачать
1 | 0
Зарубежные сериалы [ 26.51 GB ] Секретные материалы / The X-Files / Сезон: 11 / Серии 1-10 из 10 [2018 WEBRip 1080p WEB-DL 1080p] MVO [BaibaKo] GEKADOL Скачать
1 | 1
Фильмы [HD 720p, 1080p] (Хороший звук DUB, MVO) [ 7.35 GB ] Морган / Morgan [2016 BDRip 1080p] DUB [] bober100 Скачать
1 | 0

28-11-2019 20:33  

Отключить всю рекламу на сайте

    Дорогой пользователь! Огромная просьба, поблагодарите релизера, оцените раздачу и оставьте свои комментарий, если Вы скачали Морган через торрент бесплатно! Внесите свою лепту в развитие PiratBit!
    Комментировать посты могут только пользователи прошедшие не сложную регистрацию
    Показать сообщения:    

    Морган через торрент
    Скачать бесплатно Морган
    Морган скачать торрент
    Морган смотреть онлайн
    Cкачать фильм Морган бесплатно
    Морган скачать торрент в хорошем качестве
    Морган смотреть онлайн бесплатно в хорошем качестве


    Вы не можете начинать темы
    Вы не можете отвечать на сообщения
    Вы не можете редактировать свои сообщения
    Вы не можете удалять свои сообщения
    Вы не можете голосовать в опросах
    Вы не можете прикреплять файлы к сообщениям
    Вы можете скачивать файлы