1 сезон

3 сезон

iTunes

1

iTunes

MVO

iTunes

13

1 сезон

RePack

30

Deluxe

pack

Лицензия

ВАЖНО

ИГРА 18+

pack

RePack

MK11

RePack

jed

RePack

fifa19

RePack

RDR2

RePack

NEED FOR SPEED™ PAYBACK

4 сезон

9 сезон

Бесстыжие 9 сезон

Все сериалы

все сериалы на PB.wtf

RePack

FAR CRY 5

Anonymous, добрый вечер, мы катастрофически не успеваем собрать деньги на оплату серверов, помогите нам пожалуйста 5,10,15р., для нас важна любая помощь . В качестве благодарности мы отключим Вам всю рекламу на сайте (укажите свой ник в строку Ваше имя)!

×
  
Magnet ссылка

Плохая партия / The Bad Batch (Ана Лили Амирпур) [2016, фантастика, мелодрама, WEB-DLRip-AVC от R.G. Resident] AVO [BadBajo] pb.wtf

Плохая партия через торрент pb.wtf

Размер: 1.9 GB | Добавлен: 4 года назад | Торрент скачан:394 раза
Скачать  

26-06-2017 09:44 Плохая партия Скачать торрент  

Плохая партия / The Bad Batch

Год выпуска: 2016
Страна: США
Жанр: фантастика, мелодрама

Продолжительность: 01:58:49
Перевод: Авторский одноголосый - А.Важенин (BadBajo)
Примечание: Релиз без рекламы
Субтитры: английские (Full)
Режиссер: Ана Лили Амирпур
В ролях:

Сьюки Уотерхаус (Arlen), Джейсон Момоа (Miami Man), Джайда Финк (Honey), Киану Ривз (The Dream), Диего Луна (Jimmy), Джим Керри (Hermit), Йолонда Росс (Maria), Aye Hasegawa (Mousey), Джованни Рибизи (The Screamer), Louie Lopez Jr. (Chuy), Е.Р. Руис (Lone Man), Кори Робертс (Bridge Man in the Desert)
Описание:
Футуристическая антиутопия разворачивается на территории Америки, где все неугодные обществу люди изгоняются в отгороженную от цивилизации техасскую пустыню. Девушку Арлин по прибытии на дикую территорию ловит группа каннибалов, и перед новенькой маячат совсем безрадостные перспективы - бороться за свою жизнь любой ценой или быть медленно съеденной.
Рейтинг:

MPAA: R - Лицам до 17 лет обязательно присутствие взрослого
Качество: WEB-DLRip-AVC
Формат: MKV
Видео: AVC, 1024x422 (2.40:1), 1521 kbps, 23,976 fps, 0,147 bpp
Аудио №1: русский / AC3 / 5.1 / 48 kHz / 384 kbps / |AVO|
Аудио №2: английский / AC3 / 5.1 / 48 kHz / 384 kbps /
Навигация по главам: есть

General
Unique ID : 191292463615098362221361373222944849349 (0x8FE996A0265AD27391B1A237228B3DC5)
Complete name : E:\The.Bad.Batch.2016.WEB-DLRip.AVC.R.G.Resident.mkv
Format : Matroska
Format version : Version 4 / Version 2
File size : 1.90 GiB
Duration : 1 h 58 min
Overall bit rate : 2 288 kb/s
Movie name : Плохая партия (2016) WEB-DLRip-AVC от R.G. Resident
Encoded date : UTC 2017-06-24 13:50:54
Writing application : mkvmerge v12.0.0 ('Trust / Lust') 64bit
Writing library : libebml v1.3.4 + libmatroska v1.4.5
Cover : Yes
Attachments : cover.jpg

Video
ID : 1
Format : AVC
Format/Info : Advanced Video Codec
Format profile : High@L4.1
Format settings, CABAC : Yes
Format settings, ReFrames : 13 frames
Codec ID : V_MPEG4/ISO/AVC
Duration : 1 h 58 min
Bit rate : 1 521 kb/s
Width : 1 024 pixels
Height : 422 pixels
Display aspect ratio : 2.40:1
Frame rate mode : Constant
Frame rate : 23.976 (24000/1001) FPS
Color space : YUV
Chroma subsampling : 4:2:0
Bit depth : 8 bits
Scan type : Progressive
Bits/(Pixel*Frame) : 0.147
Stream size : 1.26 GiB (66%)
Title : -Lexx-
Writing library : x264 core 150 r2833kMod df79067
Encoding settings : cabac=1 / ref=13 / deblock=1:-3:-3 / analyse=0x3:0x113 / me=umh / subme=10 / psy=1 / fade_compensate=0.00 / psy_rd=1.00:0.15 / mixed_ref=1 / me_range=48 / chroma_me=1 / trellis=2 / 8x8dct=1 / cqm=0 / deadzone=21,11 / fast_pskip=0 / chroma_qp_offset=-3 / threads=12 / lookahead_threads=3 / sliced_threads=0 / nr=0 / decimate=0 / interlaced=0 / bluray_compat=0 / constrained_intra=0 / bframes=9 / b_pyramid=2 / b_adapt=2 / b_bias=0 / direct=3 / weightb=1 / open_gop=0 / weightp=2 / keyint=250 / keyint_min=25 / scenecut=40 / intra_refresh=0 / rc_lookahead=40 / rc=2pass / mbtree=0 / bitrate=1521 / ratetol=1.0 / qcomp=0.60 / qpmin=0 / qpmax=69 / qpstep=4 / cplxblur=20.0 / qblur=0.5 / vbv_maxrate=50000 / vbv_bufsize=62500 / nal_hrd=none / filler=0 / ip_ratio=1.40 / pb_ratio=1.30 / aq=1:1.00
Language : English
Default : Yes
Forced : No
Color range : Limited
Color primaries : BT.709
Transfer characteristics : BT.709
Matrix coefficients : BT.709

Audio #1
ID : 2
Format : AC-3
Format/Info : Audio Coding 3
Mode extension : CM (complete main)
Format settings, Endianness : Big
Codec ID : A_AC3
Duration : 1 h 58 min
Bit rate mode : Constant
Bit rate : 384 kb/s
Channel(s) : 6 channels
Channel positions : Front: L C R, Side: L R, LFE
Sampling rate : 48.0 kHz
Frame rate : 31.250 FPS (1536 spf)
Compression mode : Lossy
Stream size : 326 MiB (17%)
Title : VO | BadBajo
Language : Russian
Default : Yes
Forced : No

Audio #2
ID : 3
Format : AC-3
Format/Info : Audio Coding 3
Mode extension : CM (complete main)
Format settings, Endianness : Big
Codec ID : A_AC3
Duration : 1 h 58 min
Bit rate mode : Constant
Bit rate : 384 kb/s
Channel(s) : 6 channels
Channel positions : Front: L C R, Side: L R, LFE
Sampling rate : 48.0 kHz
Frame rate : 31.250 FPS (1536 spf)
Compression mode : Lossy
Stream size : 326 MiB (17%)
Title : Original
Language : English
Default : No
Forced : No

Text
ID : 4
Format : UTF-8
Codec ID : S_TEXT/UTF8
Codec ID/Info : UTF-8 Plain Text
Duration : 1 h 51 min
Bit rate : 16 b/s
Count of elements : 488
Stream size : 13.1 KiB (0%)
Title : Full
Language : English
Default : No
Forced : No

Menu
00:00:00.000 : en:Opening Sequence
00:07:23.000 : en:Jealous Of Us
00:12:34.000 : en:Captivity
00:17:44.000 : en:What's The Thing?
00:23:51.000 : en:I Can't Do This
00:29:00.000 : en:We Ain't The Same
00:35:58.000 : en:My Name's Arlen
00:40:59.000 : en:You See Her?
00:46:25.000 : en:Find The Dream
00:54:08.000 : en:It's So Big
01:00:11.000 : en:Long Way From Comfort
01:05:17.000 : en:I'm Being Friendly
01:11:15.000 : en:What's Your Number?
01:17:41.000 : en:Welcome To Comfort
01:22:52.000 : en:A Finder
01:28:36.000 : en:I'm Lost
01:33:44.000 : en:The Economy Of Comfort
01:40:47.000 : en:Take Care
01:46:08.000 : en:Look Around, It's Nothing
01:53:35.000 : en:End Credits
pb.wtf



Скачать Плохая партия через торрент http://i77.fastpic.ru/big/2016/0417/a7/808a646271c761f7c7d87df3d366b3a7.png Скачать фильм Плохая партия через торрент бесплантно в хорошем качестве Описание: Футуристическая антиутопия разворачивается на территории Америки, где все неугодные обществу люди изгоняются в отгороженную от ... 8.9 10 10
Info! Золотая раздача, скачанное не засчитывается.
Торрент: Зарегистрирован [2017-06-26 09:47] · скачан: 394 раз
Статус: √ проверено
Размер: 1.9 GB
Как cкачать? Как скачать Плохая партия через торрент | UTorrent

% Раздел Тема Автор DL S | L
Фильмы [HD 720p, 1080p] (Хороший звук DUB, MVO) [ 10.87 GB ] Плохая партия / The Bad Batch [2016 BDRip 1080p] MVO [СВ Студия] bober100 Скачать
1 | 0
Фильмы [HD 720p, 1080p] (Хороший звук DUB, MVO) [ 7.55 GB ] Плохая партия / The Bad Batch [2016 BDRip 720p] MVO [СВ Студия] bober100 Скачать
1 | 0
Фильмы 2016 [DVDrip, WEB-DLRip, HDrip] (DUB, MVO) [ 1.46 GB ] Плохая партия / The Bad Batch [2016 BDRip] MVO [СВ Студия] bober100 Скачать
2 | 0
Фильмы (Blu-ray, BD-Remux, HDDVD) [ 30.88 GB ] Плохая партия / The Bad Batch [2016 BD Remux 1080p] AVO [BadBajo] bober100 Скачать
1 | 0
Фильмы с авторской озвучкой [ 1.97 GB ] Плохая партия / The Bad Batch [2016 HDRip-AVC] AVO - ExKinoRay Enigma2010 Скачать
1 | 0
Фильмы с авторской озвучкой [ 1.45 GB ] Плохая партия / The Bad Batch [2016 HDRip] AVO - ExKinoRay Enigma2010 Скачать
2 | 0
Фильмы с авторской озвучкой [ 4.4 GB ] Плохая партия / The Bad Batch [2016 WEB-DL 1080p] AVO PROCTOLOG Скачать
1 | 0

28-11-2019 20:33  

Отключить всю рекламу на сайте

26-06-2017 14:38 Плохая партия Скачать торрент  

Это просто дичь. Не стоит потраченного времени. Если вкратце - девчонка, чью полруки и полноги съел каннибал-кхал Дрого, помогает ему спасти дочь-каннибала, чтобы потом предложить продолжить знакомство.pb.wtf



26-06-2017 15:47 Плохая партия Скачать торрент  

grifon13 писал(а):

Это просто дичь. Не стоит потраченного времени. Если вкратце - девчонка, чью полруки и полноги съел каннибал-кхал Дрого, помогает ему спасти дочь-каннибала, чтобы потом предложить продолжить знакомство.

Знатный фильм .pb.wtf



26-06-2017 18:08 Плохая партия Скачать торрент  

у нас так ж было во время олимпиады 80pb.wtf



26-06-2017 19:09 Плохая партия Скачать торрент  

Для любителей жанра Постапокалипсиса - фильм обязательный к просмотру!!!pb.wtf



    Дорогой пользователь! Огромная просьба, поблагодарите релизера, оцените раздачу и оставьте свои комментарий, если Вы скачали Плохая партия через торрент бесплатно! Внесите свою лепту в развитие PiratBit!
    Комментировать посты могут только пользователи прошедшие не сложную регистрацию
    Показать сообщения:    

    Плохая партия через торрент
    Скачать бесплатно Плохая партия
    Плохая партия скачать торрент
    Плохая партия смотреть онлайн
    Cкачать фильм Плохая партия бесплатно
    Плохая партия скачать торрент в хорошем качестве
    Плохая партия смотреть онлайн бесплатно в хорошем качестве


    Вы не можете начинать темы
    Вы не можете отвечать на сообщения
    Вы не можете редактировать свои сообщения
    Вы не можете удалять свои сообщения
    Вы не можете голосовать в опросах
    Вы не можете прикреплять файлы к сообщениям
    Вы можете скачивать файлы