2 сезон

iTunes

MVO

1

2 сезон

iTunes

iTunes

1 сезон

RePack

30

Новинка

ВАЖНО

ИГРА 18+

pack

RePack

MK11
pack

Легкие деньги

RePack

jed

RePack

fifa19

RePack

RDR2

RePack

NEED FOR SPEED™ PAYBACK

4 сезон

9 сезон

Бесстыжие 9 сезон

Все сериалы

все сериалы на PB.wtf

RePack

FAR CRY 5

Anonymous, доброй ночи, мы не успеваем собрать деньги на оплату серверов за декабрь и январь, помогите нам пожалуйста в это трудное время. В качестве благодарности мы отключим Вам всю рекламу на сайте (укажите свой ник в строку Ваше имя)!

×
  
Magnet ссылка

Конг: Остров черепа / Kong: Skull Island (Джордан Вот-Робертс / Jordan Vogt-Roberts) [2017, США, фантастика, фэнтези, боевик, BDRip-AVC от sokol_ok] Dub [Лицензия] pb.wtf

Конг: Остров черепа через торрент pb.wtf

Раздают: 1 [ 0 KB/s ]
Размер: 2.91 GB | Добавлен: 3 года 6 мес. назад | Торрент скачан:532 раза
Скачать  

26-06-2017 17:38 Конг: Остров черепа Скачать торрент  

Конг: Остров черепа
Kong: Skull Island

«Пробуждение Кинг-Конга»


Страна: США
Жанр: фантастика, фэнтези, боевик, приключения

Год выпуска: 2017
Продолжительность: 01:58:23

Перевод: Профессиональный (полное дублирование) [Blu-ray EUR]
Субтитры: русские (форсированные, полные), английские (полные, SDH)
Оригинальная аудиодорожка: английский

Режиссер: Джордан Вот-Робертс / Jordan Vogt-Roberts

В ролях: Том Хиддлстон, Сэмюэл Л. Джексон, Джон Гудман, Бри Ларсон, Цзин Тянь, Тоби Кеббелл, Джон Ортис, Кори Хоукинс, Джейсон Митчелл, Ши Уигхэм, Томас Манн, Терри Нотари

Описание:
На неизвестный остров в Тихом океане попадает команда ученых, военных и искателей приключений. Они вторгаются во владения могучего Конга и тем самым развязывают сражение между человеком и природой. Очень скоро исследовательская миссия превращается в игру на выживание, ее участники вынуждены буквально прорубать себе путь к спасению.



Релиз:

Автор рипа: stalkerok | Моя группа

Сэмпл

Качество видео: BDRip-AVC [Kong Skull Island (2017) Blu-ray EUR 1080p AVC DD5.1 HDCLUB]
Формат видео: MKV
Видео кодек: AVC
Аудио кодек: AC3
Видео: 2688 Кбит/сек, 1056*440 (2,40:1), в 23,976 (24000/1001) кадра/сек, AVC
Аудио #1: русский, 448 Кбит/сек, 48,0 КГц, 6 каналов, AC-3
Аудио #2: английский, 384 Кбит/сек, 48,0 КГц, 6 каналов, AC-3
Навигация по главам: есть

x264 [info]: frame I:1588 Avg QP:17.50 size: 77523
x264 [info]: frame P:40180 Avg QP:20.55 size: 26023
x264 [info]: frame B:128544 Avg QP:21.68 size: 9473

Общее
Уникальный идентификатор : 243080643696282228236424292847727404491 (0xB6DFA10A0C1AFFB5BE3AFBFA4637E5CB)
Полное имя : M:\!!!!!!Rips2\Kong Skull Island (2017)\Kong.Skull.Island.2017.BDRip-AVC.RUS.ENG.stalkerok.new-team.mkv
Формат : Matroska
Версия формата : Version 4 / Version 2
Размер файла : 2,91 Гбайт
Продолжительность : 1 ч. 58 м.
Общий поток : 3522 Кбит/сек
Название фильма : Kong Skull Island (2017) (Rip by stalkerok)
Дата кодирования : UTC 2017-06-26 17:32:49
Программа кодирования : mkvmerge v8.6.1 ('Flying') 64bit
Библиотека кодирования : libebml v1.3.3 + libmatroska v1.4.4

Видео
Идентификатор : 1
Формат : AVC
Формат/Информация : Advanced Video Codec
Профиль формата : High@L4.1
Параметр CABAC формата : Да
Параметр ReFrames формата : 13 кадров
Идентификатор кодека : V_MPEG4/ISO/AVC
Продолжительность : 1 ч. 58 м.
Битрейт : 2688 Кбит/сек
Ширина : 1056 пикселей
Высота : 440 пикселей
Соотношение сторон : 2,40:1
Режим частоты кадров : Постоянный
Частота кадров : 23,976 (24000/1001) кадра/сек
Цветовое пространство : YUV
Субдискретизация насыщенности : 4:2:0
Битовая глубина : 8 бит
Тип развёртки : Прогрессивная
Бит/(Пиксели*Кадры) : 0.241
Размер потока : 2,22 Гбайт (76%)
Заголовок : Kong Skull Island (2017) (Rip by stalkerok)
Библиотека кодирования : x264 core 150 r2833kMod df79067
Настройки программы : cabac=1 / ref=13 / deblock=1:-3:-2 / analyse=0x3:0x133 / me=umh / subme=10 / psy=1 / fade_compensate=0.00 / psy_rd=1.00:0.00 / mixed_ref=1 / me_range=32 / chroma_me=1 / trellis=2 / 8x8dct=1 / cqm=0 / deadzone=21,11 / fast_pskip=0 / chroma_qp_offset=-2 / threads=12 / lookahead_threads=3 / sliced_threads=0 / nr=0 / decimate=0 / interlaced=0 / bluray_compat=0 / constrained_intra=0 / bframes=13 / b_pyramid=2 / b_adapt=2 / b_bias=0 / direct=3 / weightb=1 / open_gop=0 / weightp=2 / keyint=240 / keyint_min=23 / scenecut=40 / intra_refresh=0 / rc_lookahead=60 / rc=2pass / mbtree=0 / bitrate=2688 / ratetol=1.0 / qcomp=0.65 / qpmin=0 / qpmax=69 / qpstep=4 / cplxblur=20.0 / qblur=0.5 / vbv_maxrate=50000 / vbv_bufsize=62500 / nal_hrd=none / filler=0 / ip_ratio=1.30 / pb_ratio=1.20 / aq=3:0.90
Default : Да
Forced : Нет

Аудио #1
Идентификатор : 2
Формат : AC-3
Формат/Информация : Audio Coding 3
Расширение режима : CM (complete main)
Параметр Endianness формата : Big
Идентификатор кодека : A_AC3
Продолжительность : 1 ч. 58 м.
Вид битрейта : Постоянный
Битрейт : 448 Кбит/сек
Каналы : 6 каналов
Расположение каналов : Front: L C R, Side: L R, LFE
Частота : 48,0 КГц
Частота кадров : 31,250 кадров/сек (1536 spf)
Метод сжатия : С потерями
Размер потока : 379 Мбайт (13%)
Язык : Russian
Default : Да
Forced : Нет

Аудио #2
Идентификатор : 3
Формат : AC-3
Формат/Информация : Audio Coding 3
Расширение режима : CM (complete main)
Параметр Endianness формата : Big
Идентификатор кодека : A_AC3
Продолжительность : 1 ч. 58 м.
Вид битрейта : Постоянный
Битрейт : 384 Кбит/сек
Каналы : 6 каналов
Расположение каналов : Front: L C R, Side: L R, LFE
Частота : 48,0 КГц
Частота кадров : 31,250 кадров/сек (1536 spf)
Метод сжатия : С потерями
Размер потока : 325 Мбайт (11%)
Язык : English
Default : Нет
Forced : Нет

Текст #1
Идентификатор : 4
Формат : UTF-8
Идентификатор кодека : S_TEXT/UTF8
Идентификатор кодека/Информация : UTF-8 Plain Text
Продолжительность : 1 ч. 57 м.
Битрейт : 3 бит/сек
Count of elements : 66
Размер потока : 3,31 Кбайт (0%)
Заголовок : forced
Язык : Russian
Default : Да
Forced : Нет

Текст #2
Идентификатор : 5
Формат : UTF-8
Идентификатор кодека : S_TEXT/UTF8
Идентификатор кодека/Информация : UTF-8 Plain Text
Продолжительность : 1 ч. 57 м.
Битрейт : 76 бит/сек
Count of elements : 1264
Размер потока : 65,3 Кбайт (0%)
Заголовок : full
Язык : Russian
Default : Нет
Forced : Нет

Текст #3
Идентификатор : 6
Формат : UTF-8
Идентификатор кодека : S_TEXT/UTF8
Идентификатор кодека/Информация : UTF-8 Plain Text
Продолжительность : 1 ч. 54 м.
Битрейт : 46 бит/сек
Count of elements : 1248
Размер потока : 38,6 Кбайт (0%)
Заголовок : full
Язык : English
Default : Нет
Forced : Нет

Текст #4
Идентификатор : 7
Формат : UTF-8
Идентификатор кодека : S_TEXT/UTF8
Идентификатор кодека/Информация : UTF-8 Plain Text
Продолжительность : 1 ч. 57 м.
Битрейт : 51 бит/сек
Count of elements : 1529
Размер потока : 44,7 Кбайт (0%)
Заголовок : SDH
Язык : English
Default : Нет
Forced : Нет

Меню
00:00:00.000 : en:Chapter 1
00:08:54.742 : en:Chapter 2
00:19:51.773 : en:Chapter 3
00:30:01.132 : en:Chapter 4
00:40:00.106 : en:Chapter 5
00:50:13.260 : en:Chapter 6
01:00:49.729 : en:Chapter 7
01:10:29.600 : en:Chapter 8
01:18:05.889 : en:Chapter 9
01:30:12.657 : en:Chapter 10
01:39:09.026 : en:Chapter 11
01:47:05.836 : en:Chapter 12
pb.wtf



Скачать Конг: Остров черепа через торрент http://i72.fastpic.ru/big/2015/0531/46/68ef8a2783b58e5344cc30bbd3f1b046.png Скачать фильм Конг: Остров черепа через торрент бесплантно в хорошем качестве Описание:На неизвестный остров в Тихом океане попадает команда ученых, военных и искателей приключений. Они вторгаются во владения могучего ... 9.9 10 14
Info! Золотая раздача, скачанное не засчитывается.
Торрент: Зарегистрирован [2017-06-26 17:38] · скачан: 532 раз
Статус: √ проверено
Размер: 2.91 GB
Как cкачать? Как скачать Конг: Остров черепа через торрент | UTorrent

% Раздел Тема Автор DL S | L
Ultra HD (UHD: 2K, 4K, 8K) — видео сверхвысокой чёткости [ 69.32 GB ] Конг: Остров черепа / Kong: Skull Island [2017 UHD BDRemux 2160p] DUB + 4xAVO sheker187 Скачать
1 | 0
Ultra HD (UHD: 2K, 4K, 8K) — видео сверхвысокой чёткости [ 14.98 GB ] Конг: Остров черепа / Kong: Skull Island [2017 UHD BDRip 2160p] DUB sheker187 Скачать
1 | 0
Ultra HD (UHD: 2K, 4K, 8K) — видео сверхвысокой чёткости [ 56.03 GB ] Конг: Остров черепа / Kong: Skull Island [2017 UHD Blu-ray EUR 2160p] - [] sheker187 Скачать
1 | 0
3D Фильмы [ 7.26 GB ] Конг: Остров черепа в 3D / Kong: Skull Island in 3D [2017 BDRip 1080p BD CEE] Анаглиф slaventi-69 Скачать
1 | 0
Фильмы 2017 [DVDrip, WEB-DLRip, HDrip] (DUB, MVO) [ 743 MB ] Конг: Остров черепа / Kong: Skull Island [2017 WEB-DLRip-AVC] bober100 Скачать
1 | 0
Ultra HD (UHD: 2K, 4K, 8K) — видео сверхвысокой чёткости [ 50.54 GB ] Конг: Остров черепа / Kong: Skull Island [2017 UHD BDRemux 2160p] DUB+AVO [] bober100 Скачать
1 | 0
Фильмы (HD 720p, 1080p) (48-60 fps) [ 6.64 GB ] Конг: Остров черепа / Kong: Skull Island [2017 BDRip 720p 60 fps от еnvy / NNNB] DUB | еnvy Скачать
1 | 0

28-11-2019 20:33  

Отключить всю рекламу на сайте

    Дорогой пользователь! Огромная просьба, поблагодарите релизера, оцените раздачу и оставьте свои комментарий, если Вы скачали Конг: Остров черепа через торрент бесплатно! Внесите свою лепту в развитие PiratBit!
    Комментировать посты могут только пользователи прошедшие не сложную регистрацию
    Показать сообщения:    

    Конг: Остров черепа через торрент
    Скачать бесплатно Конг: Остров черепа
    Конг: Остров черепа скачать торрент
    Конг: Остров черепа смотреть онлайн
    Cкачать фильм Конг: Остров черепа бесплатно
    Конг: Остров черепа скачать торрент в хорошем качестве
    Конг: Остров черепа смотреть онлайн бесплатно в хорошем качестве


    Вы не можете начинать темы
    Вы не можете отвечать на сообщения
    Вы не можете редактировать свои сообщения
    Вы не можете удалять свои сообщения
    Вы не можете голосовать в опросах
    Вы не можете прикреплять файлы к сообщениям
    Вы можете скачивать файлы