Ссылка на приватное зеркало нашего сайта всего за 1$. Внимание количество ограничено!!!

2 сезон

iTunes

1 сезон

1

iTunes

iTunes

iTunes

1 сезон

RePack

30

ИГРА 18+

pack

ВАЖНО

!!Акция!!

Alien_RageХит недели

RePack

MK11
pack

Забери бонус

RePack

jed

!!Акция!!

Alien_Rage

RePack

fifa19

RePack

Assassins Creed: Odyssey

RePack

NEED FOR SPEED™ PAYBACK

4 сезон

9 сезон

Бесстыжие 9 сезон

Все сериалы

все сериалы на PB.wtf

RePack

FAR CRY 5
  

Мохаве / Mojave (Уильям Монахэн) [2015, триллер, BDRip 720p] DUB [официальный звук] pb.wtf

Мохаве через торрент pb.wtf

Размер: 4.33 GB | Добавлен: 3 года 3 мес. назад | Торрент скачан:55 раз
Скачать  

26-06-2017 20:14 Мохаве Скачать торрент  

Мохаве / Mojave
Год выпуска: 2015
Страна: США
Жанр: триллер
Продолжительность: 01:33:09
Перевод: Дубляж | официальный звук | Без рекламы
Субтитры: английские

Режиссер: Уильям Монахэн

rating

В ролях:

Гаррет Хедлунд, Луиз Бургуан, Клитус Янг, Оскар Айзек, Тим Сёргел, Ральф Брэннен, Уолтон Гоггинс, Фрэн Кранц, Мэтт Джонс

Описание:

История о художнике, который, чтобы пережить личный кризис, отправляется в пустыню. Там он встречает своего двойника — жестокого убийцу. С этого момента главный герой с суицидальных мыслей переключается на поиск возможностей выжить...

Качество: BDRip 720p
Формат: MKV
Видео кодек: H.264
Аудио кодек: AC3

Видео: 1280x534 (2.40:1), 23.976 fps, MPEG-4 AVC ~4 949 kbps avg
Аудио#1: 48.0 kHz, AC3 Dolby Digital, 2/0 (L,R) ch, ~192 kbps | RUS / DUB
Аудио#2: 48.0 kHz, Digital Theater Systems, 3/2 (L,C,R,l,r) + LFE ch, ~1509 kbps | ENG
скриншот   скриншот   скриншот  

General
Уникальный идентификатор : 194306383317394997173763742866683240790 (0x922E0C56F19630FEB6BA15CA3218A156)
Полное имя : Mohave.2O15.D.BDRip.72Op.mkv
Формат : Matroska
Версия формата : Version 2
Размер файла : 4,33 Гбайт
Продолжительность : 1 ч. 33 м.
Общий поток : 6650 Кбит/сек
Дата кодирования : UTC 2017-06-25 20:32:46
Программа кодирования : mkvmerge v7.8.0 ('River Man') 32bit built on Apr 3 2015 12:11:22
Библиотека кодирования : libebml v1.3.1 + libmatroska v1.4.2

Видео
Идентификатор : 1
Формат : AVC
Формат/Информация : Advanced Video Codec
Профиль формата : High@L4.1
Параметр CABAC формата : Да
Параметр ReFrames формата : 12 кадров
Идентификатор кодека : V_MPEG4/ISO/AVC
Продолжительность : 1 ч. 33 м.
Битрейт : 4949 Кбит/сек
Ширина : 1280 пикселей
Высота : 534 пикселя
Соотношение сторон : 2,40:1
Режим частоты кадров : Постоянный
Частота кадров : 23,976 (24000/1001) кадра/сек
Цветовое пространство : YUV
Субдискретизация насыщенности : 4:2:0
Битовая глубина : 8 бит
Тип развёртки : Прогрессивная
Бит/(Пиксели*Кадры) : 0.302
Размер потока : 3,13 Гбайт (72%)
Заголовок : WaterIce@MTeam
Библиотека кодирования : x264 core 148 r2638 7599210
Настройки программы : cabac=1 / ref=12 / deblock=1:0:0 / analyse=0x3:0x113 / me=umh / subme=10 / psy=1 / psy_rd=1.05:0.10 / mixed_ref=1 / me_range=32 / chroma_me=1 / trellis=2 / 8x8dct=1 / cqm=0 / deadzone=21,11 / fast_pskip=0 / chroma_qp_offset=-2 / threads=6 / lookahead_threads=1 / sliced_threads=0 / nr=0 / decimate=1 / interlaced=0 / bluray_compat=0 / constrained_intra=0 / bframes=6 / b_pyramid=2 / b_adapt=2 / b_bias=0 / direct=3 / weightb=1 / open_gop=0 / weightp=2 / keyint=250 / keyint_min=23 / scenecut=40 / intra_refresh=0 / rc=2pass / mbtree=0 / bitrate=4949 / ratetol=1.0 / qcomp=0.70 / qpmin=0 / qpmax=69 / qpstep=4 / cplxblur=20.0 / qblur=0.5 / ip_ratio=1.40 / pb_ratio=1.30 / aq=2:1.00
Язык : English
Default : Да
Forced : Нет

Аудио #1
Идентификатор : 2
Формат : AC-3
Формат/Информация : Audio Coding 3
Параметр Endianness формата : Big
Идентификатор кодека : A_AC3
Продолжительность : 1 ч. 33 м.
Вид битрейта : Постоянный
Битрейт : 192 Кбит/сек
Каналы : 2 канала
Расположение каналов : Front: L R
Частота : 48,0 КГц
Частота кадров : 31,250 кадров/сек (1536 spf)
Битовая глубина : 16 бит
Метод сжатия : С потерями
Размер потока : 128 Мбайт (3%)
Язык : Russian
Default : Да
Forced : Нет

Аудио #2
Идентификатор : 3
Формат : DTS
Формат/Информация : Digital Theater Systems
Режим : 16
Параметр Endianness формата : Big
Идентификатор кодека : A_DTS
Продолжительность : 1 ч. 33 м.
Вид битрейта : Постоянный
Битрейт : 1509 Кбит/сек
Каналы : 6 каналов
Расположение каналов : Front: L C R, Side: L R, LFE
Частота : 48,0 КГц
Частота кадров : 93,750 кадра/сек (512 spf)
Битовая глубина : 24 бит
Метод сжатия : С потерями
Размер потока : 1006 Мбайт (23%)
Язык : English
Default : Нет
Forced : Нет

Текст
Идентификатор : 4
Формат : UTF-8
Идентификатор кодека : S_TEXT/UTF8
Идентификатор кодека/Информация : UTF-8 Plain Text
Язык : English
Default : Нет
Forced : Нет

Меню
00:00:00.000 : en:00:00:00.000
00:04:35.358 : en:00:04:35.358
00:08:48.903 : en:00:08:48.903
00:16:58.226 : en:00:16:58.226
00:22:13.332 : en:00:22:13.332
00:25:21.770 : en:00:25:21.770
00:31:21.254 : en:00:31:21.254
00:37:47.015 : en:00:37:47.015
00:44:11.190 : en:00:44:11.190
00:51:52.568 : en:00:51:52.568
00:56:32.139 : en:00:56:32.139
01:05:51.239 : en:01:05:51.239
01:10:06.619 : en:01:10:06.619
01:14:39.016 : en:01:14:39.016
01:19:11.163 : en:01:19:11.163
01:26:48.412 : en:01:26:48.412

pb.wtf



Скачать Мохаве через торрент http://img11.lostpic.net/2017/06/26/f3ad2ec4d5ee915cda3f5714085adb22.png Скачать фильм Мохаве через торрент бесплантно в хорошем качестве Описание: История о художнике, который, чтобы пережить личный кризис, отправляется в пустыню. Там он встречает своего двойника — жестокого ... 10 10 6
Торрент: Зарегистрирован [2017-06-26 20:14] · скачан: 55 раз
Статус: T временная
Размер: 4.33 GB
Как cкачать? Как скачать Мохаве через торрент | qTorrent

% Раздел Тема Автор DL S | L
Фильмы без перевода [ 1.35 GB ] Мохаве / Mojave [2015 HDRip] [ENG] killermax2013 Скачать
1 | 0

28-11-2019 20:33  

Отключить всю рекламу на сайте

    Дорогой пользователь! Огромная просьба, поблагодарите релизера, оцените раздачу и оставьте свои комментарий, если Вы скачали Мохаве через торрент бесплатно! Внесите свою лепту в развитие PiratBit!
    Комментировать посты могут только пользователи прошедшие не сложную регистрацию
    Показать сообщения:    

    Мохаве через торрент
    Скачать бесплатно Мохаве
    Мохаве скачать торрент
    Мохаве смотреть онлайн
    Cкачать фильм Мохаве бесплатно
    Мохаве скачать торрент в хорошем качестве
    Мохаве смотреть онлайн бесплатно в хорошем качестве


    Вы не можете начинать темы
    Вы не можете отвечать на сообщения
    Вы не можете редактировать свои сообщения
    Вы не можете удалять свои сообщения
    Вы не можете голосовать в опросах
    Вы не можете прикреплять файлы к сообщениям
    Вы можете скачивать файлы