2 сезон

iTunes

1 сезон

1

iTunes

iTunes

iTunes

1 сезон

RePack

30

ИГРА 18+

pack

ВАЖНО

!!Акция!!

Alien_RageХит недели

RePack

MK11
pack

Забери бонус

RePack

jed

!!Акция!!

Alien_Rage

RePack

fifa19

RePack

Assassins Creed: Odyssey

RePack

NEED FOR SPEED™ PAYBACK

4 сезон

9 сезон

Бесстыжие 9 сезон

Все сериалы

все сериалы на PB.wtf

RePack

FAR CRY 5
  

Страсть к моде / Private Gold 209: Fashion Passion (Paula Newman / Private) [2016 г., All Sex, Big Tits, Anal, Threesome, WEB-DL 720p, ENG] pb.wtf

Страсть к моде через торрент pb.wtf

Размер: 2.68 GB | Добавлен: 3 года 4 мес. назад | Торрент скачан:547 раз
Скачать  

26-06-2017 20:23 Страсть к моде Скачать торрент  

Страсть к моде / Private Gold 209: Fashion Passion
Год выпуска: 2016
Страна: Europe
Жанр: All Sex, Big Tits, Anal, Threesome
Продолжительность: 02:15:56
Перевод: Перевод отсутствует (оригинал)
Субтитры: отсутствуют

Режиссер: Paula Newman
Студия: Private

В ролях: Violette Pink, Vinna Reed, Cayla Lyons, Belle Claire, Alexis Crystal, Vanessa Decker

Описание: Private have discovered a special cosmetic cream that is going to change the world of hardcore fucking, turning innocent beauties into cum hungry nymphomaniacs! In Fashion Passion, we shared this secret with our gorgeous cast of models: Alexis Crystal, Belle Claire, Cayla Lions, Vanessa Decker, Vinna Red and Violette Pink enjoy the wildest sexual experience of their lives. This special cream can turn women into sluts, cock lovers into pussy sucking lesbians and it even has the ability to open up asses for hardcore anal! Models go wild in this insane pussy splitting special, do not miss it.

Качество: WEB-DL 720p
Формат: MP4
Видео кодек: H.264
Аудио кодек: AAC
Видео: AVC, 1280x720 (16:9), 25 fps ~ 2500 Kbps
Аудио: 44.1 KHz, 2 ch ~ 318 Kb/s (английский)
Общее
Полное имя : Q:\TorF\ppg209_720.mp4
Формат : MPEG-4
Профиль формата : Base Media
Идентификатор кодека : isom
Размер файла : 2,68 Гбайт
Продолжительность : 2 ч. 15 м.
Режим общего битрейта : Переменный
Общий поток : 2825 Кбит/сек
Программа кодирования : Lavf57.44.100

Видео
Идентификатор : 1
Формат : AVC
Формат/Информация : Advanced Video Codec
Профиль формата : Main@L4.0
Параметр CABAC формата : Да
Параметр ReFrames формата : 3 кадра
Параметр GOP формата : M=4, N=25
Идентификатор кодека : avc1
Идентификатор кодека/Информация : Advanced Video Coding
Продолжительность : 2 ч. 15 м.
Битрейт : 2501 Кбит/сек
Ширина : 1280 пикселей
Высота : 720 пикселей
Соотношение сторон : 16:9
Режим частоты кадров : Переменный
Частота кадров : 25,000 кадров/сек
Минимальная частота кадров : 11,297 кадров/сек
Максимальная частота кадров : 25,000 кадров/сек
Стандарт вещания : PAL
Цветовое пространство : YUV
Субдискретизация насыщенности : 4:2:0
Битовая глубина : 8 бит
Тип развёртки : Прогрессивная
Бит/(Пиксели*Кадры) : 0.109
Размер потока : 2,37 Гбайт (89%)
Основные цвета : BT.709-5, BT.1361, IEC 61966-2-4, SMPTE RP177
Характеристики трансфера : BT.709-5, BT.1361
Коэффициенты матрицы : BT.709-5, BT.1361, IEC 61966-2-4 709, SMPTE RP177

Аудио
Идентификатор : 2
Формат : AAC
Формат/Информация : Advanced Audio Codec
Профиль формата : LC
Идентификатор кодека : 40
Продолжительность : 2 ч. 15 м.
Вид битрейта : Переменный
Битрейт : 318 Кбит/сек
Максимальный битрейт : 320 Кбит/сек
Каналы : 2 канала
Расположение каналов : Front: L R
Частота : 44,1 КГц
Метод сжатия : С потерями
Размер потока : 309 Мбайт (11%)
Язык : English

pb.wtf



pack Скачать Страсть к моде через торрент http://pic.kartinco.top/images/11/hsoev.jpg Скачать фильм Страсть к моде через торрент бесплантно в хорошем качестве Описание: Private have discovered a special cosmetic cream that is going to change the world of hardcore fucking, turning innocent beauties ... 9.1 10 14
Info! Золотая раздача, скачанное не засчитывается.
Торрент: Зарегистрирован [2017-06-26 20:23] · скачан: 547 раз
Статус: √ проверено
Размер: 2.68 GB
Как cкачать? Как скачать Страсть к моде через торрент | qTorrent

28-11-2019 20:33  

Отключить всю рекламу на сайте

27-06-2017 05:43 Страсть к моде Скачать торрент  

Топик был перенесен из форума Полнометражные порно фильмы в форум Порно фильмы HD


nn99nnpb.wtf



pack
    Дорогой пользователь! Огромная просьба, поблагодарите релизера, оцените раздачу и оставьте свои комментарий, если Вы скачали Страсть к моде через торрент бесплатно! Внесите свою лепту в развитие PiratBit!
    Комментировать посты могут только пользователи прошедшие не сложную регистрацию
    Показать сообщения:    

    Страсть к моде через торрент
    Скачать бесплатно Страсть к моде
    Страсть к моде скачать торрент
    Страсть к моде смотреть онлайн
    Cкачать фильм Страсть к моде бесплатно
    Страсть к моде скачать торрент в хорошем качестве
    Страсть к моде смотреть онлайн бесплатно в хорошем качестве


    Вы не можете начинать темы
    Вы не можете отвечать на сообщения
    Вы не можете редактировать свои сообщения
    Вы не можете удалять свои сообщения
    Вы не можете голосовать в опросах
    Вы не можете прикреплять файлы к сообщениям
    Вы можете скачивать файлы