2 сезон

iTunes

MVO

1

2 сезон

iTunes

iTunes

1 сезон

RePack

30

Новинка

ВАЖНО

ИГРА 18+

pack

RePack

MK11
pack

Легкие деньги

RePack

jed

RePack

fifa19

RePack

RDR2

RePack

NEED FOR SPEED™ PAYBACK

4 сезон

9 сезон

Бесстыжие 9 сезон

Все сериалы

все сериалы на PB.wtf

RePack

FAR CRY 5

Anonymous, добрый вечер, мы не успеваем собрать деньги на оплату серверов за декабрь и январь, помогите нам пожалуйста в это трудное время. В качестве благодарности мы отключим Вам всю рекламу на сайте (укажите свой ник в строку Ваше имя)!

×
  
Magnet ссылка

Несмотря ни на что / Mein Blind Date mit dem Leben (Марк Ротемунд) [2017, комедия, драма, HDRip] MVO [Лицензия / iTunes] pb.wtf

Несмотря ни на что через торрент pb.wtf

Раздают: 1 [ 0 KB/s ]
Размер: 1.46 GB | Добавлен: 3 года 6 мес. назад | Торрент скачан:1213 раз
Скачать  

26-06-2017 20:50 Несмотря ни на что Скачать торрент  

Не/смотря ни на что / Mein Blind Date mit dem Leben

Год выпуска: 2017
Страна: Германия
Жанр: комедия, драма

Продолжительность: 01:50:32
Перевод: Профессиональный многоголосый [Лицензия / iTunes]
Режиссер: Марк Ротемунд
В ролях:

Костя Улльман (Saliya Kahawatte), Кида Рамадан (Hamid), Анна Мария Мюэ (Laura), Людгер Пистор (Lehrer Döngen), Нилам Фарук (Sheela), Герберт Фортубер (Herr Kolditz), Уве Пройсс (Augenarzt), Йохан фон Бюлов (Kleinschmidt), Якоб Маченц (Max), Рувен Блессинг (Apprentice), Райнер Рейнерс (Deutschlehrer), Александер Хельд (Fried)
Описание:
История, основанная на реальных событиях, о талантливом молодом человеке, который больше всего на свете мечтает о стажировке в самом престижном отеле Мюнхена. Ничто, даже внезапное ухудшение зрения, которое он сохраняет в тайне, не сможет встать у него на пути. Немного удачи, помощь друзей и вера в себя - вот рецепт его успеха.
Рейтинг:

Качество: HDRip
Формат: AVI
Видео: XviD, 720x304 (2.35:1), 1428 kbps, 24 fps, 0,272 bpp
Аудио: AC3 / 5.1 / 48 kHz / 384 kbps /
Релиз от: MegaPeer
General
Complete name : E:\TMein.Blind.Date.mit.dem.Leben.2017.HDRip.1.46Gb.MegaPeer.avi
Format : AVI
Format/Info : Audio Video Interleave
File size : 1.46 GiB
Duration : 1 h 50 min
Overall bit rate : 1 896 kb/s
Writing application : VirtualDubMod 1.5.10.2 (build 2540/release)
Writing library : VirtualDubMod build 2540/release

Video
ID : 0
Format : MPEG-4 Visual
Format profile : Advanced Simple@L5
Format settings, BVOP : 1
Format settings, QPel : No
Format settings, GMC : No warppoints
Format settings, Matrix : Custom
Codec ID : XVID
Codec ID/Hint : XviD
Duration : 1 h 50 min
Bit rate : 1 428 kb/s
Width : 720 pixels
Height : 304 pixels
Display aspect ratio : 2.35:1
Frame rate : 24.000 FPS
Color space : YUV
Chroma subsampling : 4:2:0
Bit depth : 8 bits
Scan type : Progressive
Compression mode : Lossy
Bits/(Pixel*Frame) : 0.272
Stream size : 1.10 GiB (75%)
Writing library : XviD 73

Audio
ID : 1
Format : AC-3
Format/Info : Audio Coding 3
Mode extension : CM (complete main)
Format settings, Endianness : Big
Codec ID : 2000
Duration : 1 h 50 min
Bit rate mode : Constant
Bit rate : 384 kb/s
Channel(s) : 6 channels
Channel positions : Front: L C R, Side: L R, LFE
Sampling rate : 48.0 kHz
Frame rate : 31.250 FPS (1536 spf)
Compression mode : Lossy
Stream size : 304 MiB (20%)
Alignment : Split accross interleaves
pb.wtf



Скачать Несмотря ни на что через торрент http://i96.fastpic.ru/big/2017/0627/45/1920d53fce6f29ea1bb0048e2ba17845.jpg Скачать фильм Несмотря ни на что через торрент бесплантно в хорошем качестве Описание: История, основанная на реальных событиях, о талантливом молодом человеке, который больше всего на свете мечтает о стажировке в ... 9.4 10 21
Торрент: Зарегистрирован [2017-06-26 20:50] · скачан: 1 213 раз
Статус: √ проверено
Размер: 1.46 GB
Как cкачать? Как скачать Несмотря ни на что через торрент | UTorrent

% Раздел Тема Автор DL S | L
Фильмы [HD 720p, 1080p] (Хороший звук DUB, MVO) [ 10.76 GB ] Несмотря ни на что / Mein Blind Date mit dem Leben [2017 BDRip 1080p] MVO [ R5] bober100 Скачать
1 | 0
Фильмы 2017 [DVDrip, WEB-DLRip, HDrip] (DUB, MVO) [ 2.13 GB ] Несмотря ни на что / Mein Blind Date mit dem Leben [2017 HDRip-AVC] MVO - ExKinoRay Enigma2010 Скачать
3 | 0
T Фильмы [HD 720p, 1080p] (Хороший звук DUB, MVO) [ 2.99 GB ] Несмотря ни на что / Mein Blind Date mit dem Leben [2017 BDRip 720p] MVO bober100 Скачать
2 | 0

28-11-2019 20:33  

Отключить всю рекламу на сайте

27-06-2017 14:46 Несмотря ни на что Скачать торрент  

Что за орфорграфия в названии ?pb.wtf



27-06-2017 17:43 Несмотря ни на что Скачать торрент  

А фильм очень даже ни чего)))ПиратБит и вы до казино опустились?А как же пиратский кодекс?pb.wtf



    Дорогой пользователь! Огромная просьба, поблагодарите релизера, оцените раздачу и оставьте свои комментарий, если Вы скачали Несмотря ни на что через торрент бесплатно! Внесите свою лепту в развитие PiratBit!
    Комментировать посты могут только пользователи прошедшие не сложную регистрацию
    Показать сообщения:    

    Несмотря ни на что через торрент
    Скачать бесплатно Несмотря ни на что
    Несмотря ни на что скачать торрент
    Несмотря ни на что смотреть онлайн
    Cкачать фильм Несмотря ни на что бесплатно
    Несмотря ни на что скачать торрент в хорошем качестве
    Несмотря ни на что смотреть онлайн бесплатно в хорошем качестве


    Вы не можете начинать темы
    Вы не можете отвечать на сообщения
    Вы не можете редактировать свои сообщения
    Вы не можете удалять свои сообщения
    Вы не можете голосовать в опросах
    Вы не можете прикреплять файлы к сообщениям
    Вы можете скачивать файлы