2 сезон

iTunes

MVO

1

2 сезон

iTunes

iTunes

1 сезон

RePack

30

Новинка

ВАЖНО

ИГРА 18+

pack

RePack

MK11
pack

Легкие деньги

RePack

jed

RePack

fifa19

RePack

RDR2

RePack

NEED FOR SPEED™ PAYBACK

4 сезон

9 сезон

Бесстыжие 9 сезон

Все сериалы

все сериалы на PB.wtf

RePack

FAR CRY 5

Anonymous, доброе утро, мы не успеваем собрать деньги на оплату серверов за декабрь и январь, помогите нам пожалуйста в это трудное время. В качестве благодарности мы отключим Вам всю рекламу на сайте (укажите свой ник в строку Ваше имя)!

×
  
Magnet ссылка

Красавица и чудовище / Beauty and the Beast (Билл Кондон) [2017, мюзикл, фэнтези, мелодрама, BDRip-AVC] Дубляж - [Лицензия] - ExKinoRay pb.wtf

Красавица и чудовище через торрент pb.wtf

Размер: 2.17 GB | Добавлен: 3 года 6 мес. назад | Торрент скачан:252 раза
Скачать  

27-06-2017 03:44 Красавица и чудовище Скачать торрент  

Информация о фильме
Название: Красавица и чудовище
Оригинальное название: Beauty and the Beast
Год выпуска: 2017
Жанр: Мюзикл, фэнтези, мелодрама, семейный
Страна: США
Студия: Mandeville Films, Walt Disney Pictures
Продолжительность: 02:09:16
Перевод: Дублированный | Лицензия
Субтитры: Русские, английские
Режиссер: Билл Кондон
В ролях: Эмма Уотсон, Дэн Стивенс, Люк Эванс, Джош Гэд, Кевин Клайн, Хэтти Морахэн, Хейдн Гвин, Джерард Хоран, Рэй Фиарон, Эван МакГрегор

Описание: Старая-старая сказка, горячо любимая своими зрителями, вновь возвращается на экраны ожившей легендой в виде ремейка анимационного диснеевского фильма по мотивам сказки Жанны-Мари Лепренс де Бомон. Хорошо известный всем сюжет о юной добросердечной девушке Белль, полюбившей заколдованного принца в обличии чудовища за красоту его души оформлен в виде яркого, красивого, насыщенного музыкальными номерами костюмированного фильма. Добавьте сюда отнюдь не бюджетный голливудский размах, спецэффекты компьютерной графики и ожидаемые рекордные сборы, а также Эмму Уотсон в главной роли и решитесь на просмотр - хотя бы для того, чтобы сравнить предлагаемый продукт с оригиналом.


rating

Файл
Формат: MKV
Качество: BDRip-AVC
Видео: AVC, 720х302 (2.40:1), 1949 kbps, 23,976 fps, 0,374 bpp
Аудио: 48 kHz, AC3, 5.1, 448 Kbps | RUS |

Навигация по главам: есть
General
Unique ID : 191349063285038191145184380036964533083 (0x8FF47D346B6DF2EE87EBB45985F5C35B)
Complete name : D:Beauty.and.the.Beast.2017.2.17G.BDRip.AVC.ExKinoRay.mkv
Format : Matroska
Format version : Version 2
File size : 2.17 GiB
Duration : 2 h 9 min
Overall bit rate : 2 399 kb/s
Movie name : Beauty and the Beast (2017) from ExKinoRay
Encoded date : UTC 2017-06-24 05:39:03
Writing application : mkvmerge v5.6.0 ('Kenya Kane') built on May 27 2012 16:44:04
Writing library : libebml v1.2.3 + libmatroska v1.3.0

Video
ID : 1
Format : AVC
Format/Info : Advanced Video Codec
Format profile : High@L4.1
Format settings, CABAC : Yes
Format settings, ReFrames : 10 frames
Codec ID : V_MPEG4/ISO/AVC
Duration : 2 h 9 min
Bit rate : 1 949 kb/s
Width : 720 pixels
Height : 302 pixels
Display aspect ratio : 2.40:1
Frame rate mode : Constant
Frame rate : 23.976 (24000/1001) FPS
Original frame rate : 23.976 (23976/1000) FPS
Color space : YUV
Chroma subsampling : 4:2:0
Bit depth : 8 bits
Scan type : Progressive
Bits/(Pixel*Frame) : 0.374
Stream size : 1.72 GiB (79%)
Title : Enigma
Writing library : x264 core 144 r2525 40bb568
Encoding settings : cabac=1 / ref=10 / deblock=1:-2:-2 / analyse=0x3:0x113 / me=umh / subme=10 / psy=1 / psy_rd=1.00:0.05 / mixed_ref=1 / me_range=32 / chroma_me=1 / trellis=2 / 8x8dct=1 / cqm=0 / deadzone=21,11 / fast_pskip=1 / chroma_qp_offset=-3 / threads=12 / lookahead_threads=2 / sliced_threads=0 / nr=0 / decimate=0 / interlaced=0 / bluray_compat=0 / constrained_intra=0 / bframes=10 / b_pyramid=2 / b_adapt=2 / b_bias=0 / direct=3 / weightb=1 / open_gop=0 / weightp=2 / keyint=240 / keyint_min=23 / scenecut=40 / intra_refresh=0 / rc_lookahead=40 / rc=2pass / mbtree=0 / bitrate=1949 / ratetol=1.0 / qcomp=0.60 / qpmin=0 / qpmax=51 / qpstep=4 / cplxblur=20.0 / qblur=0.5 / vbv_maxrate=50000 / vbv_bufsize=62500 / nal_hrd=none / filler=0 / ip_ratio=1.40 / pb_ratio=1.30 / aq=1:1.00
Default : Yes
Forced : No
Color range : Limited
Color primaries : BT.709
Transfer characteristics : BT.709
Matrix coefficients : BT.709

Audio
ID : 2
Format : AC-3
Format/Info : Audio Coding 3
Mode extension : CM (complete main)
Format settings, Endianness : Big
Codec ID : A_AC3
Duration : 2 h 9 min
Bit rate mode : Constant
Bit rate : 448 kb/s
Channel(s) : 6 channels
Channel positions : Front: L C R, Side: L R, LFE
Sampling rate : 48.0 kHz
Frame rate : 31.250 FPS (1536 spf)
Compression mode : Lossy
Stream size : 414 MiB (19%)
Title : Dub (Лицензия)
Language : Russian
Default : Yes
Forced : No

Text #1
ID : 3
Format : UTF-8
Codec ID : S_TEXT/UTF8
Codec ID/Info : UTF-8 Plain Text
Title : Full
Language : Russian
Default : No
Forced : No

Text #2
ID : 4
Format : UTF-8
Codec ID : S_TEXT/UTF8
Codec ID/Info : UTF-8 Plain Text
Title : Full
Language : English
Default : No
Forced : No

Text #3
ID : 5
Format : UTF-8
Codec ID : S_TEXT/UTF8
Codec ID/Info : UTF-8 Plain Text
Title : Colored
Language : English
Default : No
Forced : No

Menu
00:00:00.000 : en:Chapter 01
00:04:36.276 : en:Chapter 02
00:08:06.527 : en:Chapter 03
00:11:18.260 : en:Chapter 04
00:15:21.545 : en:Chapter 05
00:18:57.386 : en:Chapter 06
00:25:05.921 : en:Chapter 07
00:31:41.566 : en:Chapter 08
00:36:08.708 : en:Chapter 09
00:42:32.258 : en:Chapter 10
00:47:01.318 : en:Chapter 11
00:54:44.990 : en:Chapter 12
01:00:43.556 : en:Chapter 13
01:07:40.931 : en:Chapter 14
01:14:38.223 : en:Chapter 15
01:19:43.695 : en:Chapter 16
01:22:02.751 : en:Chapter 17
01:28:53.369 : en:Chapter 18
01:34:01.302 : en:Chapter 19
01:38:10.175 : en:Chapter 20
01:45:23.692 : en:Chapter 21
01:49:13.964 : en:Chapter 22
01:55:54.197 : en:Chapter 23
01:58:49.497 : en:Chapter 24
Релиз от:

Автор релиза: pb.wtf



Скачать Красавица и чудовище через торрент http://i95.fastpic.ru/big/2017/0611/f0/660bca0e9a433e105fbd0bfc7e27caf0.png Скачать фильм Красавица и чудовище через торрент бесплантно в хорошем качестве Описание: Старая-старая сказка, горячо любимая своими зрителями, вновь возвращается на экраны ожившей легендой в виде ремейка анимационного ... 9.1 10 10
Info! Золотая раздача, скачанное не засчитывается.
Торрент: Зарегистрирован [2017-06-27 03:44] · скачан: 252 раз
Статус: √ проверено
Размер: 2.17 GB
Как cкачать? Как скачать Красавица и чудовище через торрент | UTorrent

% Раздел Тема Автор DL S | L
Фильмы 2017 [DVDrip, WEB-DLRip, HDrip] (DUB, MVO) [ 2.96 GB ] Красавица и чудовище / Beauty and the Beast [2017 мюзикл BDRip-AVC] - [] - ExKinoRay Enigma2010 Скачать
1 | 0

28-11-2019 20:33  

Отключить всю рекламу на сайте

    Дорогой пользователь! Огромная просьба, поблагодарите релизера, оцените раздачу и оставьте свои комментарий, если Вы скачали Красавица и чудовище через торрент бесплатно! Внесите свою лепту в развитие PiratBit!
    Комментировать посты могут только пользователи прошедшие не сложную регистрацию
    Показать сообщения:    

    Красавица и чудовище через торрент
    Скачать бесплатно Красавица и чудовище
    Красавица и чудовище скачать торрент
    Красавица и чудовище смотреть онлайн
    Cкачать фильм Красавица и чудовище бесплатно
    Красавица и чудовище скачать торрент в хорошем качестве
    Красавица и чудовище смотреть онлайн бесплатно в хорошем качестве


    Вы не можете начинать темы
    Вы не можете отвечать на сообщения
    Вы не можете редактировать свои сообщения
    Вы не можете удалять свои сообщения
    Вы не можете голосовать в опросах
    Вы не можете прикреплять файлы к сообщениям
    Вы можете скачивать файлы