Ссылка на приватное зеркало всего за 1$. Внимание количество ограничено!!!

OK

1+1

iTunes

мы

OK

1

WEB-DLRip

Джокер

Пифагор

Ведьмак / The Witcher сериал

Лицензия

ПШазам

ОК

Оно 2

iTunes

30
pack

Вам бонус

ВАЖНО

!!Акция!!

Alien_RageХит недели

RePack

Resident Evil 21

ИГРА 18+

pack

RePack

jed

!!Акция!!

Alien_Rage

RePack

fifa19

RePack

Assassins Creed: Odyssey

RePack

NEED FOR SPEED™ PAYBACK

4 сезон

9 сезон

Бесстыжие 9 сезон

Все сериалы

все сериалы на PB.wtf

RePack

FAR CRY 5
  

Пэчворк / Patchwork (Тайлер МакИнтайр) [2015 г., ужасы, комедия, WEB-DLRip] VO (xixidok) pb.wtf

Пэчворк через торрент pb.wtf

Размер: 1.36 GB | Добавлен: 2 года 6 мес. назад | Торрент скачан:92 раза
Скачать  

27-06-2017 04:22 Пэчворк Скачать торрент  

Пэчворк / PatchworkГод выпуска: 2015
Страна: США, Канада
Студия: Infinite Lives Entertainment
Жанр: ужасы, комедия
Продолжительность: 01:27:13
Перевод: Любительский одноголосый (xixidok)
Субтитры: отсутствуют

Режиссер: Тайлер МакИнтайр
В ролях: Тори Столпер, Трэйси Фэирэуэй, Мария Бласуччи, Джеймс Фелпс, Крэйг Анстетт, Сет Кэссел, Браден Дэвис, Anthony DiMieri, Эрик Эдельштейн, Камила Гринберг

rating

Описание: У Дженнифер с личной жизнью полный швах. Сегодня у девушки день рождения, но пригласить она может только коллег по работе, даже женатый сослуживец, с которым она крутит роман, не остался выпить с ней в баре. В расстроенных чувствах Дженнифер возвращается домой, где получает удар битой по голове. Придя в себя на операционном столе, она обнаруживает, что её тело теперь состоит из фрагментов ещё двух тел девушек, и их голоса звучат в её голове. И одной-то женщине бывает сложно разобраться в себе, а тут теперь сразу три!

Доп. информация: ПРИСУТСТВУЕТ ГОЛОСОВАЯ РЕКЛАМА В НАЧАЛЬНЫХ И КОНЕЧНЫХ ТИТРАХ

Качество: WEB-DLRip
Формат: AVI
Видео кодек: XviD
Аудио кодек: MP3
Видео: 720x304 (2.35:1), 23.976 fps ~ 1835 Kbps
Аудио#1: MP3, 48 KHz 2 ch ~ 192 Kb/s (русский)
Аудио#2: MP3, 48 KHz 2 ch ~ 192 Kb/s (английский)
скриншот   скриншот   скриншот   скриншот   скриншот   скриншот  

Общее
Полное имя : Q:\TorF\Patchwork.2015.WEB-DLRip.avi
Формат : AVI
Формат/Информация : Audio Video Interleave
Размер файла : 1,36 Гбайт
Продолжительность : 1 ч. 27 м.
Общий поток : 2233 Кбит/сек
Название фильма : Patchwork.2015.WEB-DL.XviD.MP3-FGT
Программа кодирования : VirtualDubMod 1.5.10.3 (build 2550/release)
Библиотека кодирования : VirtualDubMod build 2550/release
Примечание : Patchwork.2015.WEB-DL.XviD.MP3-FGT

Видео
Идентификатор : 0
Формат : MPEG-4 Visual
Профиль формата : Simple@L5
Параметр BVOP формата : Нет
Параметр QPel формата : Нет
Параметр GMC формата : Без точки перехода
Параметр матрицы формата : Default (H.263)
Идентификатор кодека : XVID
Идентификатор кодека/Подсказка : XviD
Продолжительность : 1 ч. 27 м.
Битрейт : 1835 Кбит/сек
Ширина : 720 пикселей
Высота : 304 пикселя
Соотношение сторон : 2,35:1
Частота кадров : 23,976 кадра/сек
Цветовое пространство : YUV
Субдискретизация насыщенности : 4:2:0
Битовая глубина : 8 бит
Тип развёртки : Прогрессивная
Метод сжатия : С потерями
Бит/(Пиксели*Кадры) : 0.350
Размер потока : 1,12 Гбайт (82%)
Библиотека кодирования : Lavc57.16.101

Аудио #1
Идентификатор : 1
Формат : MPEG Audio
Версия формата : Version 1
Профиль формата : Layer 3
Режим : Joint stereo
Расширение режима : MS Stereo
Идентификатор кодека : 55
Идентификатор кодека/Подсказка : MP3
Продолжительность : 1 ч. 27 м.
Вид битрейта : Постоянный
Битрейт : 192 Кбит/сек
Каналы : 2 канала
Частота : 48,0 КГц
Метод сжатия : С потерями
Задержка видео : 24 мс.
Размер потока : 120 Мбайт (9%)
Выравнивание : Соединение по промежуткам
Продолжительность промежутка : 42 мс. (1,00 видеокадр)
Время предзагрузки промежутка : 504 мс.
Библиотека кодирования : LAME3.99.5

Аудио #2
Идентификатор : 2
Формат : MPEG Audio
Версия формата : Version 1
Профиль формата : Layer 3
Режим : Joint stereo
Идентификатор кодека : 55
Идентификатор кодека/Подсказка : MP3
Продолжительность : 1 ч. 27 м.
Вид битрейта : Постоянный
Битрейт : 192 Кбит/сек
Каналы : 2 канала
Частота : 48,0 КГц
Метод сжатия : С потерями
Размер потока : 120 Мбайт (9%)
Выравнивание : Разделение по промежуткам
Продолжительность промежутка : 42 мс. (1,00 видеокадр)
Время предзагрузки промежутка : 500 мс.
Библиотека кодирования : LAMEUU#ЁФґGеo3!ШЛ

pb.wtf



Скачать Пэчворк через торрент http://pic.kartinco.top/images/11/dokz8.jpg Скачать фильм Пэчворк через торрент бесплантно в хорошем качестве Описание: У Дженнифер с личной жизнью полный швах. Сегодня у девушки день рождения, но пригласить она может только коллег по работе, даже ... 10 10 2
Info! Золотая раздача, скачанное не засчитывается.
Торрент: Зарегистрирован [2017-06-27 04:22] · скачан: 92 раз
Статус: T временная
Размер: 1.36 GB
Как cкачать? Как скачать Пэчворк через торрент | qTorrent

% Раздел Тема Автор DL S | L
T Релизы по Парсеру [Игры, Сериалы и Фильмы и другое...] [ 3.24 GB ] Пэчворк или пёстрая мозаика / Patchwork [2015 WEB-DLRip 1080p Любительский ] jump88 Скачать
1 | 0

28-11-2019 20:33  

Отключить всю рекламу на сайте

    Дорогой пользователь! Огромная просьба, поблагодарите релизера, оцените раздачу и оставьте свои комментарий, если Вы скачали Пэчворк через торрент бесплатно! Внесите свою лепту в развитие PiratBit!
    Комментировать посты могут только пользователи прошедшие не сложную регистрацию
    Показать сообщения:    

    Пэчворк через торрент
    Скачать бесплатно Пэчворк
    Пэчворк скачать торрент
    Пэчворк смотреть онлайн
    Cкачать фильм Пэчворк бесплатно
    Пэчворк скачать торрент в хорошем качестве
    Пэчворк смотреть онлайн бесплатно в хорошем качестве


    Вы не можете начинать темы
    Вы не можете отвечать на сообщения
    Вы не можете редактировать свои сообщения
    Вы не можете удалять свои сообщения
    Вы не можете голосовать в опросах
    Вы не можете прикреплять файлы к сообщениям
    Вы можете скачивать файлы