Ссылка на приватное зеркало нашего сайта всего за 1$. Внимание количество ограничено!!!

2 сезон

iTunes

1 сезон

1

iTunes

iTunes

iTunes

1 сезон

RePack

30

ИГРА 18+

pack

ВАЖНО

!!Акция!!

Alien_RageХит недели

RePack

MK11
pack

Забери бонус

RePack

jed

!!Акция!!

Alien_Rage

RePack

fifa19

RePack

Assassins Creed: Odyssey

RePack

NEED FOR SPEED™ PAYBACK

4 сезон

9 сезон

Бесстыжие 9 сезон

Все сериалы

все сериалы на PB.wtf

RePack

FAR CRY 5
  

Путь на Запад / The Way West (Эндрю В. МакЛаглен) [1967, приключения, вестерн, BDRip 720p by msltel] MVO pb.wtf

Путь на Запад через торрент pb.wtf

Размер: 4.29 GB | Добавлен: 3 года 3 мес. назад | Торрент скачан:22 раза
Скачать  

27-06-2017 09:23 Путь на Запад Скачать торрент  

Название: Путь на Запад
Оригинальное название: The Way West
Год выпуска: 1967
Страна: США
Жанр: приключения, вестерн
Продолжительность: 02:02:04
Перевод: профессиональный многоголосый

Режиссер: Эндрю В. МакЛаглен

В ролях: Кирк Дуглас, Роберт Митчэм, Ричард Уидмарк, Лола Олбрайт, Салли Филд, Кэтрин Джастис, Джек Илэм, Стабби Кайе, Майкл МакГриви, Харри Кэри, Конни Сойер, Майкл Уитни, Уильям Лэндиган, Элизабет Фрейзер, Джон Митчум

Описание: Середина XIX века. Уильям Тэдлок ведёт переселенцев на Запад Америки, чтобы создать там новое поселение. Тэдлок — строгий предводитель, который одинаково требователен к себе и к остальным участникам похода. По дороге путешественникам приходится пережить множество несчастий, а после убийства индейского мальчика испытать на себе всю силу правосудия...



Качество: BDRip 720p
Формат: MKV
Видео: MPEG-4 AVC, 4651 Кбит/с, 1280x546, 23.976 кадр/с
Аудио 1: русский, AC3, 192 kbps, 2 ch [профессиональный многоголосый, Спб, 5 канал]
Аудио 2: английский, AC3, 192 kbps, 2 ch, 48 kHz [оригинал]
Имеются неименованные главы/чаптеры.
Общее
Уникальный идентификатор : 191191068581661965450390416831787014389 (0x8FD60F76E76F119481903420E8E798F5)
Полное имя : D:\Video\Путь на Запад.1967.BDRip.720p by msltel.mkv
Формат : Matroska
Версия формата : Version 4 / Version 2
Размер файла : 4,29 Гбайт
Продолжительность : 2 ч. 2 м.
Общий поток : 5037 Кбит/сек
Название фильма : Rip by msltel
Дата кодирования : UTC 2017-06-26 12:33:40
Программа кодирования : mkvmerge v8.2.0 ('World of Adventure') 64bit
Библиотека кодирования : libebml v1.3.1 + libmatroska v1.4.2

Видео
Идентификатор : 1
Формат : AVC
Формат/Информация : Advanced Video Codec
Профиль формата : High@L4.1
Параметр CABAC формата : Да
Параметр ReFrames формата : 9 кадров
Идентификатор кодека : V_MPEG4/ISO/AVC
Продолжительность : 2 ч. 2 м.
Битрейт : 4651 Кбит/сек
Ширина : 1280 пикселей
Высота : 546 пикселей
Соотношение сторон : 2,35:1
Режим частоты кадров : Постоянный
Частота кадров : 23,976 (24000/1001) кадра/сек
Цветовое пространство : YUV
Субдискретизация насыщенности : 4:2:0
Битовая глубина : 8 бит
Тип развёртки : Прогрессивная
Бит/(Пиксели*Кадры) : 0.278
Размер потока : 3,97 Гбайт (92%)
Библиотека кодирования : x264 core 146 r2538 121396c
Настройки программы : cabac=1 / ref=9 / deblock=1:-3:-2 / analyse=0x3:0x113 / me=umh / subme=11 / psy=1 / psy_rd=1.00:0.15 / mixed_ref=1 / me_range=32 / chroma_me=1 / trellis=2 / 8x8dct=1 / cqm=0 / deadzone=21,11 / fast_pskip=0 / chroma_qp_offset=-3 / threads=6 / lookahead_threads=1 / sliced_threads=0 / nr=0 / decimate=1 / interlaced=0 / bluray_compat=0 / constrained_intra=0 / bframes=8 / b_pyramid=2 / b_adapt=2 / b_bias=0 / direct=1 / weightb=1 / open_gop=0 / weightp=2 / keyint=230 / keyint_min=23 / scenecut=40 / intra_refresh=0 / rc_lookahead=40 / rc=crf / mbtree=0 / crf=20.5 / qcomp=0.60 / qpmin=0 / qpmax=69 / qpstep=4 / vbv_maxrate=62500 / vbv_bufsize=78125 / crf_max=0.0 / nal_hrd=none / filler=0 / ip_ratio=1.40 / pb_ratio=1.30 / aq=1:1.00
Язык : English
Default : Да
Forced : Нет

Аудио #1
Идентификатор : 2
Формат : AC-3
Формат/Информация : Audio Coding 3
Параметр Endianness формата : Big
Идентификатор кодека : A_AC3
Продолжительность : 2 ч. 2 м.
Вид битрейта : Постоянный
Битрейт : 192 Кбит/сек
Каналы : 2 канала
Расположение каналов : Front: L R
Частота : 48,0 КГц
Частота кадров : 31,250 кадров/сек (1536 spf)
Битовая глубина : 16 бит
Метод сжатия : С потерями
Размер потока : 168 Мбайт (4%)
Заголовок : MVO (Спб, 5 канал)
Язык : Russian
ServiceKind/String : Complete Main
Default : Да
Forced : Нет

Аудио #2
Идентификатор : 3
Формат : AC-3
Формат/Информация : Audio Coding 3
Параметр Endianness формата : Big
Идентификатор кодека : A_AC3
Продолжительность : 2 ч. 2 м.
Вид битрейта : Постоянный
Битрейт : 192 Кбит/сек
Каналы : 2 канала
Расположение каналов : Front: L R
Частота : 48,0 КГц
Частота кадров : 31,250 кадров/сек (1536 spf)
Битовая глубина : 16 бит
Метод сжатия : С потерями
Размер потока : 168 Мбайт (4%)
Заголовок : original
Язык : English
ServiceKind/String : Complete Main
Default : Нет
Forced : Нет

Меню
00:00:00.000 : en:00:00:00.000
00:07:21.858 : en:00:07:21.858
00:15:39.689 : en:00:15:39.689
00:28:44.640 : en:00:28:44.640
00:42:01.227 : en:00:42:01.227
00:53:14.358 : en:00:53:14.358
00:59:05.000 : en:00:59:05.000
01:12:48.406 : en:01:12:48.406
01:18:14.648 : en:01:18:14.648
01:28:32.933 : en:01:28:32.933
01:39:05.231 : en:01:39:05.231
01:46:25.254 : en:01:46:25.254
pb.wtf



Скачать Путь на Запад через торрент http://i013.radikal.ru/1706/06/b87157d290ab.jpg Скачать фильм Путь на Запад через торрент бесплантно в хорошем качестве Описание: Середина XIX века. Уильям Тэдлок ведёт переселенцев на Запад Америки, чтобы создать там новое поселение. Тэдлок — строгий ... 10 10 2
Info! Золотая раздача, скачанное не засчитывается.
Торрент: Зарегистрирован [2017-06-27 09:23] · скачан: 22 раз
Статус: √ проверено
Размер: 4.29 GB
Как cкачать? Как скачать Путь на Запад через торрент | qTorrent

% Раздел Тема Автор DL S | L
Фильмы [HD 720p, 1080p] (Хороший звук DUB, MVO) [ 11.02 GB ] Путь на Запад / The Way West [1967 BDRip 1080p by msltel] MVO msltel Скачать
1 | 0

28-11-2019 20:33  

Отключить всю рекламу на сайте

    Дорогой пользователь! Огромная просьба, поблагодарите релизера, оцените раздачу и оставьте свои комментарий, если Вы скачали Путь на Запад через торрент бесплатно! Внесите свою лепту в развитие PiratBit!
    Комментировать посты могут только пользователи прошедшие не сложную регистрацию
    Показать сообщения:    

    Путь на Запад через торрент
    Скачать бесплатно Путь на Запад
    Путь на Запад скачать торрент
    Путь на Запад смотреть онлайн
    Cкачать фильм Путь на Запад бесплатно
    Путь на Запад скачать торрент в хорошем качестве
    Путь на Запад смотреть онлайн бесплатно в хорошем качестве


    Вы не можете начинать темы
    Вы не можете отвечать на сообщения
    Вы не можете редактировать свои сообщения
    Вы не можете удалять свои сообщения
    Вы не можете голосовать в опросах
    Вы не можете прикреплять файлы к сообщениям
    Вы можете скачивать файлы