Ссылка на приватное зеркало нашего сайта всего за 1$. Внимание количество ограничено!!!

2 сезон

iTunes

1 сезон

1

iTunes

iTunes

iTunes

1 сезон

RePack

30

ИГРА 18+

pack

ВАЖНО

!!Акция!!

Alien_RageХит недели

RePack

MK11
pack

Забери бонус

RePack

jed

!!Акция!!

Alien_Rage

RePack

fifa19

RePack

Assassins Creed: Odyssey

RePack

NEED FOR SPEED™ PAYBACK

4 сезон

9 сезон

Бесстыжие 9 сезон

Все сериалы

все сериалы на PB.wtf

RePack

FAR CRY 5
  

Большое разочарование / The Big Chill (Лоуренс Кэздан) [1983, драма, комедия, BDRip 720p by msltel] MVO pb.wtf

Большое разочарование через торрент pb.wtf

Качают: 1 [ 0 KB/s ]
Размер: 4.86 GB | Добавлен: 3 года 3 мес. назад | Торрент скачан:23 раза
Скачать  

27-06-2017 10:49 Большое разочарование Скачать торрент  

Название: Большое разочарование
Оригинальное название: The Big Chill
Год выпуска: 1983
Страна: США
Жанр: драма, комедия
Продолжительность: 01:45:18
Перевод: профессиональный многоголосый

Режиссер: Лоуренс Кэздан

В ролях: Том Беренджер, Гленн Клоуз, Джефф Голдблюм, Уильям Хёрт, Кевин Клайн, Мэри Кэй Плэйс, Мег Тилли, ДжоБет Уильямс, Дон Гэллоуэй, Джеймс Гиллис, Джон Кэсдан, Мюриэль Мур, Патриция Гол

Описание: Жили-были в Южной Каролине восемь друзей детства. Разъехались в разные края и стали профи каждый в своём деле: журналюга Майкл, вояка Ник, звезда телеэкрана Сэм и влюблённая в него Кэрин, молодые супруги Хэролд и Сара, а также Мег и заводила компании Алекс. Последний, кстати, умер. Точнее — покончил с собой. Именно его похороны и стали причиной встречи этой семёрки и возлюбленной покойного Хлой. У них есть о чём воспомнить и о чём порассуждать. Каждый актёр — звезда, каждый персонаж — личность. Но отчего умер их общий любимчик? Устал от жизни? или с ним стряслась реальная, а не вымышленная беда?...



Качество: BDRip 720p
Формат: MKV
Видео: MPEG-4 AVC, 5970 Kбит/с, 1280x694
Аудио 1: русский, AC3, 192 kbps, 2 ch [профессиональный многоголосый, CTC]
Аудио 2: английский, AC3, 448 kbps, 6 ch, 48 kHz [оригинал]
Субтитры 1: русские
Субтитры 2: английские
Имеются неименованные главы/чаптеры.
Общее
Уникальный идентификатор : 235431906078627383754338716505125151745 (0xB11E8928C0E5E107A814BA258073E401)
Полное имя : D:\Video\Большое разочарование.1983.BDRip.720p by msltel.mkv
Формат : Matroska
Версия формата : Version 4 / Version 2
Размер файла : 4,86 Гбайт
Продолжительность : 1 ч. 45 м.
Общий поток : 6612 Кбит/сек
Название фильма : Rip by msltel
Дата кодирования : UTC 2017-06-27 06:29:11
Программа кодирования : mkvmerge v8.2.0 ('World of Adventure') 64bit
Библиотека кодирования : libebml v1.3.1 + libmatroska v1.4.2

Видео
Идентификатор : 1
Формат : AVC
Формат/Информация : Advanced Video Codec
Профиль формата : High@L4.1
Параметр CABAC формата : Да
Параметр ReFrames формата : 9 кадров
Идентификатор кодека : V_MPEG4/ISO/AVC
Продолжительность : 1 ч. 45 м.
Битрейт : 5970 Кбит/сек
Ширина : 1280 пикселей
Высота : 694 пикселя
Соотношение сторон : 1,85:1
Режим частоты кадров : Постоянный
Частота кадров : 23,976 (24000/1001) кадра/сек
Цветовое пространство : YUV
Субдискретизация насыщенности : 4:2:0
Битовая глубина : 8 бит
Тип развёртки : Прогрессивная
Бит/(Пиксели*Кадры) : 0.280
Размер потока : 4,39 Гбайт (90%)
Библиотека кодирования : x264 core 146 r2538 121396c
Настройки программы : cabac=1 / ref=9 / deblock=1:-3:-2 / analyse=0x3:0x113 / me=umh / subme=11 / psy=1 / psy_rd=1.00:0.15 / mixed_ref=1 / me_range=32 / chroma_me=1 / trellis=2 / 8x8dct=1 / cqm=0 / deadzone=21,11 / fast_pskip=0 / chroma_qp_offset=-3 / threads=6 / lookahead_threads=1 / sliced_threads=0 / nr=0 / decimate=1 / interlaced=0 / bluray_compat=0 / constrained_intra=0 / bframes=7 / b_pyramid=2 / b_adapt=2 / b_bias=0 / direct=1 / weightb=1 / open_gop=0 / weightp=2 / keyint=230 / keyint_min=23 / scenecut=40 / intra_refresh=0 / rc_lookahead=40 / rc=crf / mbtree=0 / crf=20.1 / qcomp=0.60 / qpmin=0 / qpmax=69 / qpstep=4 / vbv_maxrate=62500 / vbv_bufsize=78125 / crf_max=0.0 / nal_hrd=none / filler=0 / ip_ratio=1.40 / pb_ratio=1.30 / aq=1:1.00
Язык : English
Default : Да
Forced : Нет

Аудио #1
Идентификатор : 2
Формат : AC-3
Формат/Информация : Audio Coding 3
Параметр Endianness формата : Big
Идентификатор кодека : A_AC3
Продолжительность : 1 ч. 45 м.
Вид битрейта : Постоянный
Битрейт : 192 Кбит/сек
Каналы : 2 канала
Расположение каналов : Front: L R
Частота : 48,0 КГц
Частота кадров : 31,250 кадров/сек (1536 spf)
Битовая глубина : 16 бит
Метод сжатия : С потерями
Размер потока : 145 Мбайт (3%)
Заголовок : MVO (CTC)
Язык : Russian
ServiceKind/String : Complete Main
Default : Да
Forced : Нет

Аудио #2
Идентификатор : 3
Формат : AC-3
Формат/Информация : Audio Coding 3
Параметр Endianness формата : Big
Идентификатор кодека : A_AC3
Продолжительность : 1 ч. 45 м.
Вид битрейта : Постоянный
Битрейт : 448 Кбит/сек
Каналы : 6 каналов
Расположение каналов : Front: L C R, Side: L R, LFE
Частота : 48,0 КГц
Частота кадров : 31,250 кадров/сек (1536 spf)
Битовая глубина : 16 бит
Метод сжатия : С потерями
Размер потока : 337 Мбайт (7%)
Заголовок : original
Язык : English
ServiceKind/String : Complete Main
Default : Нет
Forced : Нет

Текст #1
Идентификатор : 4
Формат : UTF-8
Идентификатор кодека : S_TEXT/UTF8
Идентификатор кодека/Информация : UTF-8 Plain Text
Продолжительность : 1 ч. 42 м.
Битрейт : 111 бит/сек
ElementCount : 1300
Размер потока : 83,9 Кбайт (0%)
Заголовок : русские
Язык : Russian
Default : Нет
Forced : Нет

Текст #2
Идентификатор : 5
Формат : UTF-8
Идентификатор кодека : S_TEXT/UTF8
Идентификатор кодека/Информация : UTF-8 Plain Text
Продолжительность : 1 ч. 41 м.
Битрейт : 58 бит/сек
ElementCount : 1260
Размер потока : 43,3 Кбайт (0%)
Заголовок : английские
Язык : English
Default : Нет
Forced : Нет

Меню
00:00:00.000 : :1
00:06:04.197 : :2
00:08:27.048 : :3
00:13:05.993 : :4
00:19:48.270 : :5
00:23:54.599 : :6
00:28:17.028 : :7
00:34:49.712 : :8
00:38:01.112 : :9
00:40:06.112 : :10
00:43:54.590 : :11
00:49:45.315 : :12
00:52:33.483 : :13
00:56:51.658 : :14
01:02:54.103 : :15
01:07:07.064 : :16
01:09:59.403 : :17
01:13:15.099 : :18
01:20:21.942 : :19
01:25:35.630 : :20
01:32:25.039 : :21
01:38:05.045 : :22
01:42:02.658 : :23
pb.wtf



Скачать Большое разочарование через торрент http://s019.radikal.ru/i630/1706/51/f44b002d4300.jpg Скачать фильм Большое разочарование через торрент бесплантно в хорошем качестве Описание: Жили-были в Южной Каролине восемь друзей детства. Разъехались в разные края и стали профи каждый в своём деле: журналюга Майкл, ... 10 10 1
Info! Золотая раздача, скачанное не засчитывается.
Торрент: Зарегистрирован [2017-06-27 10:49] · скачан: 23 раз
Статус: √ проверено
Размер: 4.86 GB
Как cкачать? Как скачать Большое разочарование через торрент | qTorrent

% Раздел Тема Автор DL S | L
Фильмы [HD 720p, 1080p] (Хороший звук DUB, MVO) [ 14.48 GB ] Большое разочарование / The Big Chill [1983 BDRip 1080p by msltel] MVO msltel Скачать
1 | 0

28-11-2019 20:33  

Отключить всю рекламу на сайте

    Дорогой пользователь! Огромная просьба, поблагодарите релизера, оцените раздачу и оставьте свои комментарий, если Вы скачали Большое разочарование через торрент бесплатно! Внесите свою лепту в развитие PiratBit!
    Комментировать посты могут только пользователи прошедшие не сложную регистрацию
    Показать сообщения:    

    Большое разочарование через торрент
    Скачать бесплатно Большое разочарование
    Большое разочарование скачать торрент
    Большое разочарование смотреть онлайн
    Cкачать фильм Большое разочарование бесплатно
    Большое разочарование скачать торрент в хорошем качестве
    Большое разочарование смотреть онлайн бесплатно в хорошем качестве


    Вы не можете начинать темы
    Вы не можете отвечать на сообщения
    Вы не можете редактировать свои сообщения
    Вы не можете удалять свои сообщения
    Вы не можете голосовать в опросах
    Вы не можете прикреплять файлы к сообщениям
    Вы можете скачивать файлы