Доктор Стрэндж

Лицензия

Добыча

MVO

Дом дракона

1 сезон

Тор

Лицензия

Мэверик

Лицензия

Там, где раки поют

MVO

Властелин колец

1 сезон

Ultimate

pack

Рекомендуем

30

Repack

ВАЖНО

ВАЖНО

Ghostwire

RePack

jed

RePack

nioh2

RePack

RDR2

RePack

NEED FOR SPEED™ PAYBACK

RePack

скачать торрент

Кинопоиск HD

Острые козырьки 6 сезон

6 сезон

FAR CRY 6

RePack

скачать торрент

Лицензия

скачать торрент

MVO

1

1 сезон

скачать торрент

1 сезон

скачать торрент

Лицензия

  

Блам! / Blame! (Сэсита Хироюки) [2017, приключения, фантастика, WEBRip 1080p] 3xMVO [AlexFilm]

Блам! через торрент pb.wtf

Размер: 3.1 GB | Добавлен: 5 лет 3 мес. назад | Торрент скачан:302 раза
Смотреть онлайн Блам! | Скачать   

27-06-2017 11:53 Блам! Скачать торрент  

Блам! / Blame!
Год выпуска: 2017
Страна: Япония
Жанр: приключения, фантастика
Продолжительность: 01:46:00

Перевод:

Профессиональный многоголосый [AlexFilm]
Любительский (многоголосый, закадровый) - AniLibria
Любительский (многоголосый, закадровый) - AniDUB

Субтитры:

русские (встроенные полный перевод, ASS) - Feslav & Aero
русские (встроенные полный перевод, ASS) - Полные субтитры - Izakaya & nippa & onami
английские (встроенные полный перевод, ASS)

Режиссер: Сэсита Хироюки

rating

В ролях:

Сакурай Такахиро, Ханадзава Кана, Амамия Сора, Ямадзи Кадзухиро, Мияно Мамору, Судзаки Ая, Симадзаки Нобунага, Кадзи Юки, Хаями Саори

Описание:

Человечество всегда стремится как можно больше упростить, автоматизировать свою жизнь, чтобы освободить время на решение более важных задач. В будущем люди достигли высокого уровня развития технологий, машинам было доверено даже строительство и оборона. Но в какой-то момент всё пошло насмарку, и некая инфекция уничтожила в людях особый ген, позволяющий им отдавать приказы роботам. Произошло восстание машин, людей, не имеющих этого гена, беспощадно истребляли, а город начал строиться сам по себе, бесконечно расширяясь. Кому-то удалось остаться в живых, но каждый день этих людей был наполнен борьбой за выживание.
В деревне девушки Зуру всего 150 человек. Но им всё равно сложно себя прокормить, практически каждый поход на поиски еды заканчивается фатально для добровольцев. Зуру и её друзья решили рискнуть и помочь умирающим от голода товарищам. Но их тоже ждала неудача, они наткнулись на Истребителей. Домой вернулись не все, да ещё и с пустыми руками. Но в своём походе они впервые повстречали человека не из деревни, странника Килли, которому чудом удаётся выживать в недружелюбном городе. Этот момент становится поворотным для существования их поселения.


Качество: WEBRip 1080p
Формат: MKV
Видео кодек: H.264
Аудио кодек: AC3/AAC

Видео: 1920x1080, 23.976 fps, 2610 kbps
Аудио#1:RUS:48.0 kHz, AC3, 6 ch, 384 kbps - AlexFilm
Аудио#2:RUS:48.0 kHz, AAC, 2 ch, 256 kbps - AniLibria
Аудио#3:RUS: 48.0 kHz, AAC, 2 ch, 192 kbps - AniDUB
Аудио#4:JAP: 48.0 kHz, AC3, 6 ch, 384 kbps
Аудио#5:ENG: 48.0 kHz, AC3, 6 ch, 384 kbps


Релиз от:
Озвучивание: Ульяна Иващенко, Маргарита Корш, Алёна Андронова, Артём Бахтин, Станислав Черсков, Кирилл Патрино, Дмитрий Рыбин, Алексей Никитин, Роман Сопко, Михаил Суслов
Перевод: Дияна Младенович
Тайминг и работа со звуком: Михаил Шорыгин
Релиз от:
Озвучивание: Студийная банда AD
Перевод: Добрые люди
Тайминг и работа со звуком: Павел П.
Релиз от:
Озвучивание: Anzen, Amikiri, Sharon, Ados, December, Aemi, LeeAnnushka

скриншот   скриншот   скриншот   скриншот   скриншот  

General
Format : Matroska
Format version : Version 4 / Version 2
File size : 3.10 GiB
Duration : 1 h 46 min
Overall bit rate mode : Variable
Overall bit rate : 4 181 kb/s
Encoded date : UTC 2017-06-26 04:28:17
Writing application : mkvmerge v8.3.0 ('Over the Horizon') 64bit
Writing library : libebml v1.3.1 + libmatroska v1.4.2
Attachments : OpenSans-Semibold.ttf

Video
ID : 1
Format : AVC
Format/Info : Advanced Video Codec
Format profile : [email protected]
Format settings, CABAC : Yes
Format settings, ReFrames : 3 frames
Codec ID : V_MPEG4/ISO/AVC
Duration : 1 h 46 min
Bit rate mode : Variable
Bit rate : 2 610 kb/s
Maximum bit rate : 3 915 kb/s
Width : 1 920 pixels
Height : 1 080 pixels
Display aspect ratio : 16:9
Frame rate mode : Constant
Frame rate : 23.976 (24000/1001) FPS
Color space : YUV
Chroma subsampling : 4:2:0
Bit depth : 8 bits
Scan type : Progressive
Bits/(Pixel*Frame) : 0.052
Stream size : 1.91 GiB (62%)
Writing library : x264 core 118
Encoding settings : cabac=1 / ref=3 / deblock=1:0:0 / analyse=0x1:0x111 / me=umh / subme=10 / psy=1 / psy_rd=1.00:0.00 / mixed_ref=1 / me_range=24 / chroma_me=1 / trellis=2 / 8x8dct=0 / cqm=0 / deadzone=21,11 / fast_pskip=1 / chroma_qp_offset=-2 / threads=8 / sliced_threads=0 / nr=0 / decimate=1 / interlaced=0 / bluray_compat=0 / constrained_intra=0 / bframes=2 / b_pyramid=0 / b_adapt=2 / b_bias=0 / direct=3 / weightb=1 / open_gop=0 / weightp=2 / keyint=48 / keyint_min=25 / scenecut=0 / intra_refresh=0 / rc_lookahead=0 / rc=2pass / mbtree=1 / bitrate=2610 / ratetol=1.0 / qcomp=0.50 / qpmin=6 / qpmax=51 / qpstep=4 / cplxblur=20.0 / qblur=0.5 / vbv_maxrate=3915 / vbv_bufsize=5220 / nal_hrd=vbr / ip_ratio=1.40 / aq=1:1.00
Default : Yes
Forced : No

Audio #1
ID : 2
Format : AC-3
Format/Info : Audio Coding 3
Mode extension : CM (complete main)
Format settings, Endianness : Big
Codec ID : A_AC3
Duration : 1 h 46 min
Bit rate mode : Constant
Bit rate : 384 kb/s
Channel(s) : 6 channels
Channel positions : Front: L C R, Side: L R, LFE
Sampling rate : 48.0 kHz
Frame rate : 31.250 FPS (1536 spf)
Compression mode : Lossy
Stream size : 291 MiB (9%)
Title : AlexFilm
Language : Russian
Default : Yes
Forced : No

Audio #2
ID : 3
Format : AAC
Format/Info : Advanced Audio Codec
Format profile : LC
Codec ID : A_AAC
Duration : 1 h 46 min
Bit rate : 256 kb/s
Channel(s) : 2 channels
Channel positions : Front: L R
Sampling rate : 48.0 kHz
Frame rate : 46.875 FPS (1024 spf)
Compression mode : Lossy
Stream size : 194 MiB (6%)
Title : AniLibria
Language : Russian
Default : No
Forced : No

Audio #3
ID : 4
Format : AAC
Format/Info : Advanced Audio Codec
Format profile : LC
Codec ID : A_AAC
Duration : 1 h 46 min
Bit rate : 192 kb/s
Channel(s) : 2 channels
Channel positions : Front: L R
Sampling rate : 48.0 kHz
Frame rate : 46.875 FPS (1024 spf)
Compression mode : Lossy
Stream size : 144 MiB (5%)
Title : AniDub
Language : Russian
Default : No
Forced : No

Audio #4
ID : 5
Format : AC-3
Format/Info : Audio Coding 3
Mode extension : CM (complete main)
Format settings, Endianness : Big
Codec ID : A_AC3
Duration : 1 h 46 min
Bit rate mode : Constant
Bit rate : 384 kb/s
Channel(s) : 6 channels
Channel positions : Front: L C R, Side: L R, LFE
Sampling rate : 48.0 kHz
Frame rate : 31.250 FPS (1536 spf)
Compression mode : Lossy
Stream size : 291 MiB (9%)
Title : Japanese
Language : Japanese
Default : No
Forced : No

Audio #5
ID : 6
Format : AC-3
Format/Info : Audio Coding 3
Mode extension : CM (complete main)
Format settings, Endianness : Big
Codec ID : A_AC3
Duration : 1 h 46 min
Bit rate mode : Constant
Bit rate : 384 kb/s
Channel(s) : 6 channels
Channel positions : Front: L C R, Side: L R, LFE
Sampling rate : 48.0 kHz
Frame rate : 31.250 FPS (1536 spf)
Compression mode : Lossy
Stream size : 291 MiB (9%)
Title : English
Language : English
Default : No
Forced : No

Text #1
ID : 7
Format : ASS
Codec ID : S_TEXT/ASS
Codec ID/Info : Advanced Sub Station Alpha
Duration : 1 h 38 min
Bit rate : 86 b/s
Count of elements : 971
Compression mode : Lossless
Stream size : 62.5 KiB (0%)
Title : Полные субтитры - Aero & Feslav
Language : Russian
Default : Yes
Forced : No

Text #2
ID : 8
Format : ASS
Codec ID : S_TEXT/ASS
Codec ID/Info : Advanced Sub Station Alpha
Duration : 1 h 37 min
Bit rate : 83 b/s
Count of elements : 992
Compression mode : Lossless
Stream size : 59.7 KiB (0%)
Title : Полные субтитры - Izakaya & nippa & onami
Language : Russian
Default : No
Forced : No

Text #3
ID : 9
Format : ASS
Codec ID : S_TEXT/ASS
Codec ID/Info : Advanced Sub Station Alpha
Duration : 1 h 45 min
Bit rate : 61 b/s
Count of elements : 983
Compression mode : Lossless
Stream size : 47.0 KiB (0%)
Title : English SUB
Language : English
Default : No
Forced : No




Скачать Блам! через торрент http://s019.radikal.ru/i635/1705/fd/3e3d6e165a06.jpg Скачать, смотреть онлайн Блам! бесплантно в хорошем качестве Описание: Человечество всегда стремится как можно больше упростить, автоматизировать свою жизнь, чтобы освободить время на решение более ... 9.9 10 8
Info! Золотая раздача, скачанное не засчитывается.
Торрент: Зарегистрирован [2017-06-27 11:53] · скачан: 302 раз
Статус: T временная
Размер: 3.1 GB
Как cкачать? Как скачать Блам! через торрент | UTorrent

% Раздел Тема Автор DL S | L
T Аниме [DVDrip, WEB-DLRip, HDrip] [ 742 MB ] Блам! / Blame! | MVO | WEBRip-AVC bober100 Скачать
1 | 0

28-11-2019 20:33  

Отключить вcю реклaмy на сайте

27-06-2017 13:08 Блам! Скачать торрент  

Отличное аниме, даже при всей недосказанности и мутности происходящего!=)



27-06-2017 14:00 Блам! Скачать торрент  

ну такое



    Дорогой пользователь! Огромная просьба, поблагодарите релизера, оцените раздачу и оставьте свои комментарий, если Вы скачали Блам! через торрент бесплатно!!
    Комментировать посты могут только пользователи прошедшие не сложную регистрацию
    Показать сообщения:    


    Блам! через торрент
    Скачать бесплатно Блам!
    Блам! скачать торрент
    Блам! смотреть онлайн
    Cкачать фильм Блам! бесплатно
    Блам! скачать торрент в хорошем качестве
    Блам! смотреть онлайн бесплатно в хорошем качестве
    Вы не можете начинать темы
    Вы не можете отвечать на сообщения
    Вы не можете редактировать свои сообщения
    Вы не можете удалять свои сообщения
    Вы не можете голосовать в опросах
    Вы не можете прикреплять файлы к сообщениям
    Вы можете скачивать файлы