Ссылка на приватное зеркало нашего сайта всего за 1$. Внимание количество ограничено!!!

2 сезон

iTunes

1 сезон

1

iTunes

iTunes

iTunes

1 сезон

RePack

30

ИГРА 18+

pack

ВАЖНО

!!Акция!!

Alien_RageХит недели

RePack

MK11
pack

Забери бонус

RePack

jed

!!Акция!!

Alien_Rage

RePack

fifa19

RePack

Assassins Creed: Odyssey

RePack

NEED FOR SPEED™ PAYBACK

4 сезон

9 сезон

Бесстыжие 9 сезон

Все сериалы

все сериалы на PB.wtf

RePack

FAR CRY 5
  

Иду до конца (Трудный день) / Kkeutkkaji ganda (A Hard Day) (Ким Сон-хун ) [2014, триллер, криминал, боевик, BDRip 720p от _denis_100 | NNNB] 3xAVO + 2xDVO + Original + Sub (Rus,Eng) pb.wtf

Иду до конца через торрент pb.wtf

Размер: 6.36 GB | Добавлен: 3 года 4 мес. назад | Торрент скачан:149 раз
Скачать  

27-06-2017 17:43 Иду до конца Скачать торрент  

Иду до конца (Трудный день) / Kkeutkkaji ganda (A Hard Day)


Год выпуска: 2014
Страна: Корея Южная
Жанр: триллер, криминал, боевик
Продолжительность: 01:50:51
Перевод: Авторский одноголосый, Любительский двухголосый
Субтитры: русские, английские
Режиссер: Ким Сон-хун
В ролях: Ли Сон-гюн , Чо Джин-ун , Чан Ин-соп , Чон Ман-щик , Ким Дон-ён , Пак По-гом , Щин Дон-ми , Щин Джон-гын , Чо Ха-сок , Ли Джи-хун , Ли Сын-джун , Ю Сун-ун
Описание:
Возвращаясь с похорон матери, детектив отдела специальных преступлений Ко Гон-су попадает в аварию, в результате которой погибает человек. Произошедшая авария может мгновенно поставить крест на карьере, разрушив всю его жизнь. Чтобы скрыть преступление, он принимает решение, которое повлечёт за собой ужасные последствия.

Качество: BDRip 720p
Контейнер (Расширение): MKV
Видео: 1280x546, 5014 Кбит/сек, 23,976 кадр/сек, 0,299 Бит/[Пиксели*Кадры]
Аудио №1: русский / AC3 / 5.1 / 48 kHz / 640 kbps / |Авторский одноголосый, Юрий Сербин|
Аудио №2: русский / AC3 / 5.1 / 48 kHz / 640 kbps / |Авторский одноголосый, Дмитрий Есарев|
Аудио №3: русский / AC3 / 5.1 / 48 kHz / 640 kbps / |Авторский одноголосый, Вадим Назаров|
Аудио №4: русский / AC3 / 5.1 / 48 kHz / 448 kbps / |Любительский двухголосый, DeadSno & den904|
Аудио №5: русский / AC3 / 2.0 / 48 kHz / 192 kbps / |Любительский двухголосый, Green Tea|
Аудио №6: Korean / AC3 / 5.1 / 48 kHz / 640 kbps /
Навигация по главам(Чаптеры): естьАвтор рипа: Группа:
Format : Matroska
Format version : Version 2
File size : 6.36 GiB
Duration : 1 h 50 min
Overall bit rate : 8 217 kb/s
Movie name : A Hard Day.(2014).BDRip.720p.[denis100]
Encoded date : UTC 2017-06-27 17:13:58
Writing application : mkvmerge v5.8.0 ('No Sleep / Pillow') built on Sep 2 2012 15:37:04
Writing library : libebml v1.2.3 + libmatroska v1.3.0

Video
ID : 1
Format : AVC
Format/Info : Advanced Video Codec
Format profile : High@L4.1
Format settings, CABAC : Yes
Format settings, ReFrames : 11 frames
Codec ID : V_MPEG4/ISO/AVC
Duration : 1 h 50 min
Bit rate : 5 014 kb/s
Width : 1 280 pixels
Height : 546 pixels
Display aspect ratio : 2.35:1
Frame rate mode : Constant
Frame rate : 23.976 (24000/1001) FPS
Color space : YUV
Chroma subsampling : 4:2:0
Bit depth : 8 bits
Scan type : Progressive
Bits/(Pixel*Frame) : 0.299
Stream size : 3.76 GiB (59%)
Title : A Hard Day.(2014).BDRip.720p.[denis100]
Writing library : x264 core 150 r2833 df79067
Encoding settings : cabac=1 / ref=11 / deblock=1:-3:-3 / analyse=0x3:0x133 / me=umh / subme=11 / psy=1 / psy_rd=1.00:0.05 / mixed_ref=1 / me_range=32 / chroma_me=1 / trellis=2 / 8x8dct=1 / cqm=0 / deadzone=21,11 / fast_pskip=0 / chroma_qp_offset=-3 / threads=6 / lookahead_threads=1 / sliced_threads=0 / nr=0 / decimate=1 / interlaced=0 / bluray_compat=0 / constrained_intra=0 / bframes=9 / b_pyramid=2 / b_adapt=2 / b_bias=0 / direct=3 / weightb=1 / open_gop=0 / weightp=2 / keyint=240 / keyint_min=23 / scenecut=40 / intra_refresh=0 / rc=2pass / mbtree=0 / bitrate=5014 / ratetol=1.0 / qcomp=0.60 / qpmin=0 / qpmax=69 / qpstep=4 / cplxblur=20.0 / qblur=0.5 / ip_ratio=1.40 / pb_ratio=1.30 / aq=1:0.95
Language : English
Default : Yes
Forced : No

Audio #1
ID : 2
Format : AC-3
Format/Info : Audio Coding 3
Mode extension : CM (complete main)
Format settings, Endianness : Big
Codec ID : A_AC3
Duration : 1 h 50 min
Bit rate mode : Constant
Bit rate : 640 kb/s
Channel(s) : 6 channels
Channel positions : Front: L C R, Side: L R, LFE
Sampling rate : 48.0 kHz
Frame rate : 31.250 FPS (1536 spf)
Compression mode : Lossy
Stream size : 507 MiB (8%)
Title : AVO, Юрий Сербин
Language : Russian
Default : Yes
Forced : No

Audio #2
ID : 3
Format : AC-3
Format/Info : Audio Coding 3
Mode extension : CM (complete main)
Format settings, Endianness : Big
Codec ID : A_AC3
Duration : 1 h 50 min
Bit rate mode : Constant
Bit rate : 640 kb/s
Channel(s) : 6 channels
Channel positions : Front: L C R, Side: L R, LFE
Sampling rate : 48.0 kHz
Frame rate : 31.250 FPS (1536 spf)
Compression mode : Lossy
Stream size : 507 MiB (8%)
Title : AVO, Дмитрий Есарев
Language : Russian
Default : No
Forced : No

Audio #3
ID : 4
Format : AC-3
Format/Info : Audio Coding 3
Mode extension : CM (complete main)
Format settings, Endianness : Big
Codec ID : A_AC3
Duration : 1 h 50 min
Bit rate mode : Constant
Bit rate : 640 kb/s
Channel(s) : 6 channels
Channel positions : Front: L C R, Side: L R, LFE
Sampling rate : 48.0 kHz
Frame rate : 31.250 FPS (1536 spf)
Compression mode : Lossy
Stream size : 507 MiB (8%)
Title : AVO, Вадим Назаров
Language : Russian
Default : No
Forced : No

Audio #4
ID : 5
Format : AC-3
Format/Info : Audio Coding 3
Mode extension : CM (complete main)
Format settings, Endianness : Big
Codec ID : A_AC3
Duration : 1 h 50 min
Bit rate mode : Constant
Bit rate : 448 kb/s
Channel(s) : 6 channels
Channel positions : Front: L C R, Side: L R, LFE
Sampling rate : 48.0 kHz
Frame rate : 31.250 FPS (1536 spf)
Compression mode : Lossy
Stream size : 355 MiB (5%)
Title : DVO, DeadSno & den904
Language : Russian
Default : No
Forced : No

Audio #5
ID : 6
Format : AC-3
Format/Info : Audio Coding 3
Mode extension : CM (complete main)
Format settings, Endianness : Big
Codec ID : A_AC3
Duration : 1 h 50 min
Bit rate mode : Constant
Bit rate : 192 kb/s
Channel(s) : 2 channels
Channel positions : Front: L R
Sampling rate : 48.0 kHz
Frame rate : 31.250 FPS (1536 spf)
Compression mode : Lossy
Stream size : 152 MiB (2%)
Title : DVO, Green Tea
Language : Russian
Default : No
Forced : No

Audio #6
ID : 7
Format : AC-3
Format/Info : Audio Coding 3
Mode extension : CM (complete main)
Format settings, Endianness : Big
Codec ID : A_AC3
Duration : 1 h 50 min
Bit rate mode : Constant
Bit rate : 640 kb/s
Channel(s) : 6 channels
Channel positions : Front: L C R, Side: L R, LFE
Sampling rate : 48.0 kHz
Frame rate : 31.250 FPS (1536 spf)
Compression mode : Lossy
Stream size : 507 MiB (8%)
Language : Korean
Default : No
Forced : No

Text #1
ID : 8
Format : UTF-8
Codec ID : S_TEXT/UTF8
Codec ID/Info : UTF-8 Plain Text
Language : Russian
Default : No
Forced : No

Text #2
ID : 9
Format : UTF-8
Codec ID : S_TEXT/UTF8
Codec ID/Info : UTF-8 Plain Text
Title : Full
Language : English
Default : No
Forced : No

Menu
00:00:00.000 : :Chapter 01
00:06:11.788 : :Chapter 02
00:11:52.253 : :Chapter 03
00:20:23.973 : :Chapter 04
00:29:35.273 : :Chapter 05
00:34:21.559 : :Chapter 06
00:44:03.349 : :Chapter 07
00:51:23.872 : :Chapter 08
00:56:15.080 : :Chapter 09
01:02:35.293 : :Chapter 10
01:13:21.606 : :Chapter 11
01:20:42.963 : :Chapter 12
01:24:16.635 : :Chapter 13
01:31:11.383 : :Chapter 14
01:45:13.224 : :Chapter 15
01:47:23.437 : :Chapter 16
pb.wtf



Скачать Иду до конца через торрент http://i3.imageban.ru/out/2017/06/27/b51a63575695ade2473646a36e20d6d2.png Скачать фильм Иду до конца через торрент бесплантно в хорошем качестве Описание:Возвращаясь с похорон матери, детектив отдела специальных преступлений Ко Гон-су попадает в аварию, в результате которой погибает ... 9.6 10 5
Info! Золотая раздача, скачанное не засчитывается.
Торрент: Зарегистрирован [2017-06-27 17:44] · скачан: 149 раз
Статус: √ проверено
Размер: 6.36 GB
Как cкачать? Как скачать Иду до конца через торрент | qTorrent

28-11-2019 20:33  

Отключить всю рекламу на сайте

13-07-2017 07:59 Иду до конца Скачать торрент  

На удивление просто суперфильм,постоянная динамика и актёры отлично играют pb.wtf



19-07-2017 16:43 Иду до конца Скачать торрент  

а чему удивлятся корейцы умеют сниматьpb.wtf



21-07-2017 22:00 Иду до конца Скачать торрент  

zlayaanna писал(а):

а чему удивлятся корейцы умеют снимать

+1. Но кино у них есть и покруче этого намного.pb.wtf



    Дорогой пользователь! Огромная просьба, поблагодарите релизера, оцените раздачу и оставьте свои комментарий, если Вы скачали Иду до конца через торрент бесплатно! Внесите свою лепту в развитие PiratBit!
    Комментировать посты могут только пользователи прошедшие не сложную регистрацию
    Показать сообщения:    

    Иду до конца через торрент
    Скачать бесплатно Иду до конца
    Иду до конца скачать торрент
    Иду до конца смотреть онлайн
    Cкачать фильм Иду до конца бесплатно
    Иду до конца скачать торрент в хорошем качестве
    Иду до конца смотреть онлайн бесплатно в хорошем качестве


    Вы не можете начинать темы
    Вы не можете отвечать на сообщения
    Вы не можете редактировать свои сообщения
    Вы не можете удалять свои сообщения
    Вы не можете голосовать в опросах
    Вы не можете прикреплять файлы к сообщениям
    Вы можете скачивать файлы