Ссылка на приватное зеркало нашего сайта всего за 1$. Внимание количество ограничено!!!

2 сезон

iTunes

1 сезон

1

2 сезон

2 сезон

iTunes

1 сезон

RePack

30

Ultimate

ВАЖНО

ИГРА 18+

pack

RePack

MK11
pack

Забери бонус

RePack

jed

!!Акция!!

Alien_Rage

RePack

fifa19

RePack

Assassins Creed: Odyssey

RePack

NEED FOR SPEED™ PAYBACK

4 сезон

9 сезон

Бесстыжие 9 сезон

Все сериалы

все сериалы на PB.wtf

RePack

FAR CRY 5
  

Проповедник / Preacher / Сезон: 2 / Серии 1-13 из 13 (Эван Голдберг / Evan Goldberg, Сет Роген / Seth Rogen, Майкл Словис / Michael Slovis) [2017, США, фэнтези, драма, детектив, WEB-DLRip] MVO [AlexFilm] pb.wtf

Проповедник через торрент pb.wtf

Размер: 7.28 GB | Добавлен: 3 года 2 мес. назад | Торрент скачан:28 раз
Скачать  

27-06-2017 23:40 Проповедник Скачать торрент  

Проповедник / Preacher
«Powerful AF»


  • Год выпуска: 2017
  • Страна: США
  • Жанр: фэнтези, драма, детектив, приключения
  • Продолжительность: 00:42:51 (Серия)
  • Перевод: Профессиональный многоголосый [AlexFilm]
  • Режиссер: Эван Голдберг / Evan Goldberg, Сет Роген / Seth Rogen, Майкл Словис / Michael Slovis
  • В ролях:

    Доминик Купер (Jesse Custer), Джозеф Гилган (Cassidy), Рут Негга (Tulip O'Hare), Йен Коллетти (Arseface), Грэм МакТавиш (The Cowboy), Джули Энн Эмери, Ноа Тейлор, Пип Торренс, Люси Гриффитс (Emily), У. Эрл Браун (Hugo Root), Дерек Уилсон (Donnie Schenck), Том Брук (Fiore)


  • Священник Джесси Кастер по воле случая стал носителем внутри своего естества странного существа по имени Генезис. Это дитя совокупления ангела и демона представляет собой одновременно чистый идеал и квинтэссенцию света, но также сгусток абсолютного зла. Генезис - единственное существо во Вселенной, которое может встать вровень с Богом, если того пожелает, а его носитель автоматически становится самым могущественным существом в материальном мире. И это проповедник Кастер.
  • Рейтинг:



  • Качество: WEB-DLRip
  • Формат: :AVI
  • Видео кодек: XviD
  • Аудио кодек: MP3
  • Видео: 720x400 (16:9), 1404 kbps, 23,976 fps, 0,203 bpp
  • Аудио №1: Русский 2.0 / 48 kHz / 128 kbps
  • Аудио №2: Английский 2.0 / 48 kHz / 128 kbps
  • Релиз от: AlexFilm

    Внимание! Раздача ведётся путём добавления новых серий; при каждом добавлении создаётся новый торрент. Чтобы начать докачку новой серии, пользователям необходимо сделать следующее:
    (1) остановить скачивание,
    (2) удалить старый торрент у себя из клиента (старые серии удалять не надо),
    (3) скачать новый торрент и запустить его у себя в клиенте вместо старого, при этом указать клиенту путь в старую папку куда и должно происходить скачивание новых серий.
    Ваш клиент при этом должен произвести хеширование (проверку) старой папки (если не производит сам - помогите ему сделать это), и будет докачивать только те серии которых у вас ещё нет. Старые серии при этом не удаляются, а продолжают раздаваться!
    Eсли вы уже удалили старые серии, то предотвратить повторную закачку старых серий можно, отжав галочку в соответствующих местах при запуске нового торрента. По возможности, желательно не удалять старые серии как можно дольше чтобы релизёр не столько продолжал раздавать старые серии, а смог сконцентрироваться на новых.

    General
    Complete name : F:\Preacher - Season 2 (AlexFilm) WEB-DLRip\Preacher.s02e02.WEB-DLRip.Rus.Eng.AlexFilm.avi
    Format : AVI
    Format/Info : Audio Video Interleave
    File size : 513 MiB
    Duration : 42 min
    Overall bit rate : 1 674 kb/s
    Movie name : Preacher 2x02 @ AlexFilm
    Writing application : VirtualDubMod 1.5.10.2 (build 2540/release)
    Writing library : VirtualDubMod build 2540/release

    Video
    ID : 0
    Format : MPEG-4 Visual
    Format profile : Advanced Simple@L5
    Format settings, BVOP : No
    Format settings, QPel : No
    Format settings, GMC : No warppoints
    Format settings, Matrix : Default (MPEG)
    Codec ID : XVID
    Codec ID/Hint : XviD
    Duration : 42 min
    Bit rate : 1 404 kb/s
    Width : 720 pixels
    Height : 400 pixels
    Display aspect ratio : 16:9
    Frame rate : 23.976 (23976/1000) FPS
    Color space : YUV
    Chroma subsampling : 4:2:0
    Bit depth : 8 bits
    Scan type : Progressive
    Compression mode : Lossy
    Bits/(Pixel*Frame) : 0.203
    Stream size : 430 MiB (84%)
    Writing library : XviD 73

    Audio #1
    ID : 1
    Format : MPEG Audio
    Format version : Version 1
    Format profile : Layer 3
    Mode : Joint stereo
    Mode extension : MS Stereo
    Codec ID : 55
    Codec ID/Hint : MP3
    Duration : 42 min
    Bit rate mode : Constant
    Bit rate : 128 kb/s
    Channel(s) : 2 channels
    Sampling rate : 48.0 kHz
    Compression mode : Lossy
    Stream size : 39.2 MiB (8%)
    Alignment : Aligned on interleaves
    Interleave, duration : 42 ms (1.00 video frame)
    Interleave, preload duration : 504 ms
    Title : Russian (AlexFilm)
    Writing library : LAMEUUU07)и‹™oЏЕЖ Э

    Audio #2
    ID : 2
    Format : MPEG Audio
    Format version : Version 1
    Format profile : Layer 3
    Mode : Joint stereo
    Mode extension : MS Stereo
    Codec ID : 55
    Codec ID/Hint : MP3
    Duration : 42 min
    Bit rate mode : Constant
    Bit rate : 128 kb/s
    Channel(s) : 2 channels
    Sampling rate : 48.0 kHz
    Compression mode : Lossy
    Stream size : 39.2 MiB (8%)
    Alignment : Aligned on interleaves
    Interleave, duration : 42 ms (1.00 video frame)
    Interleave, preload duration : 504 ms
    Title : English
    Writing library : LAME3.90.3ЄЄЄЄЄЄЄЄЄЄ



    Скриншоты:
    скриншот   скриншот   скриншот   скриншот   скриншот   скриншот   скриншот  
    скриншот  

    Раздача ведётся путём добавления новых серий. Добавлена 13 серия (13.09.2017).Просьба перекачать торрент файл.

    pb.wtf



  • Скачать Проповедник через торрент http://i96.fastpic.ru/big/2017/0628/23/e28b7c81a28aac6943b2f58d69cf1123.jpg Скачать фильм Проповедник через торрент бесплантно в хорошем качестве qw.png Священник Джесси Кастер по воле случая стал носителем внутри своего естества странного существа по имени Генезис. Это дитя ... 10 10 13
    Info! Золотая раздача, скачанное не засчитывается.
    Торрент: Зарегистрирован [2017-09-12 23:26] · скачан: 28 раз
    Статус: √ проверено
    Размер: 7.28 GB
    Как cкачать? Как скачать Проповедник через торрент | qTorrent

    % Раздел Тема Автор DL S | L
    Зарубежные сериалы [ 7.15 GB ] Проповедник / Preacher / Сезон 2 / Серии 1-13 из 13 [2017 WEBRip] DVO [Кубик в Кубе] bober100 Скачать
    2 | 0
    Зарубежные сериалы [ 24.81 GB ] Проповедник / Preacher / Сезон 2 / Серии 1-13 из 13 [2017 WEB-DL 1080p] MVO [AlexFilm] bober100 Скачать
    1 | 0
    Зарубежные сериалы [ 14.64 GB ] Проповедник / Preacher / Сезон 2 / Серии 1-13 из 13 [2017 WEBRip 720p] DVO [Кубик в Кубе] bober100 Скачать
    2 | 0
    Зарубежные сериалы [ 10.84 GB ] Проповедник / Preacher / Сезон 2 / Серии 1-13 из 13 [2017 HDTVRip 720p] DVO [Susnhine Studio] bober100 Скачать
    1 | 0
    Зарубежные сериалы [ 12 GB ] Проповедник / Preacher / Сезон 2 / Серии 1-13 из 13 [2017 WEBRip] [DVO] [Кубик в Кубе] + [Sub] killermax2013 Скачать
    2 | 0
    Зарубежные сериалы [ 18.97 GB ] Проповедник / Preacher / Сезон 2 / Серии 1-13 из 13 [2017 WEBRip 720p] MVO [AlexFilm] bober100 Скачать
    1 | 0
    R.G.Resident - Сериалы, Видео [ 2.92 GB ] Проповедник / Preacher / Сезон: 2 / Серии 1-5 из 13 [2017 WEB-DLRip-AVC многоголосый [AlexFilm] ] White Smoke Скачать
    1 | 0

    28-11-2019 20:33  

    Отключить всю рекламу на сайте

      Дорогой пользователь! Огромная просьба, поблагодарите релизера, оцените раздачу и оставьте свои комментарий, если Вы скачали Проповедник через торрент бесплатно! Внесите свою лепту в развитие PiratBit!
      Комментировать посты могут только пользователи прошедшие не сложную регистрацию
      Показать сообщения:    

      Проповедник через торрент
      Скачать бесплатно Проповедник
      Проповедник скачать торрент
      Проповедник смотреть онлайн
      Cкачать фильм Проповедник бесплатно
      Проповедник скачать торрент в хорошем качестве
      Проповедник смотреть онлайн бесплатно в хорошем качестве


      Вы не можете начинать темы
      Вы не можете отвечать на сообщения
      Вы не можете редактировать свои сообщения
      Вы не можете удалять свои сообщения
      Вы не можете голосовать в опросах
      Вы не можете прикреплять файлы к сообщениям
      Вы можете скачивать файлы