Доктор Стрэндж

Лицензия

Добыча

MVO

Дом дракона

1 сезон

Тор

Лицензия

Мэверик

Лицензия

Там, где раки поют

MVO

Властелин колец

1 сезон

Ultimate

pack

Рекомендуем

30

Repack

ВАЖНО

ВАЖНО

Ghostwire

RePack

jed

RePack

nioh2

RePack

RDR2

RePack

NEED FOR SPEED™ PAYBACK

RePack

скачать торрент

Кинопоиск HD

Острые козырьки 6 сезон

6 сезон

FAR CRY 6

RePack

скачать торрент

Лицензия

скачать торрент

MVO

1

1 сезон

скачать торрент

1 сезон

скачать торрент

Лицензия

  

Сахара / Sahara (Пьер Коре) [2017, мультфильм, комедия, приключения, семейный, BDRip 1080p] MVO [«КОЛОБОК»]

Сахара через торрент pb.wtf

Размер: 6.19 GB | Добавлен: 5 лет 3 мес. назад | Торрент скачан:334 раза
Смотреть онлайн | Скачать   

28-06-2017 05:36 Сахара Скачать торрент  

Сахара / Sahara
Год выпуска: 2017
Страна: Франция Канада
Жанр: мультфильм, комедия, приключения, семейный
Продолжительность: 01:25:42
Перевод: Любительский (многоголосый) - [«КОЛОБОК»]
Субтитры: отсутствуют

Режиссер: Пьер Коре

rating

В ролях:

Омар Си, Луан Эмера, Франк Гастамбид, Венсан Лакост, Рамзи Бедиа, Кловис Корнийяк, Жан Дюжарден, Гран Кор Маляд, Рем Кериси

Описание:

В величественной пустыне обитают два клана змей. Один из них, клан зелёных змеек, пользуется всеми благами природы. Заняв живописный оазис, они наслаждаются безмятежностью и блаженствуют в изобилии воды и еды. Другие же змеи, ядовитые аспиды, вынуждены каждый день сражаться за собственное выживание. Они противостоят жаре, засухе, ночному холоду, отсутствию растительности, воды и пищи. Кроме того, им приходится сражаться с хищными птицами...

Качество: BDRip 1080p
Формат: MKV
Видео кодек: H.264
Аудио кодек: AC3

Видео: 1920x800 (2.40:1), 24.000 fps, MPEG-4 AVC ~9 895 kbps avg
Аудио#1: 48.0 kHz, AC3 Dolby Digital, 2/0 (L,R) ch, ~448 kbps

скриншот   скриншот   скриншот  

Общее
Уникальный идентификатор : 175953893422487353951067109712498599081 (0x845F7CBA475F3C8FB04889E7549124A9)
Полное имя : D:\Sahara.2017.P.BDRip.1O8OP_KOSHARA.mkv
Формат : Matroska
Версия формата : Version 2
Размер файла : 6,19 Гбайт
Продолжительность : 1 ч. 25 м.
Режим общего битрейта : Переменный
Общий поток : 10,3 Мбит/сек
Дата кодирования : UTC 2017-06-27 12:40:52
Программа кодирования : mkvmerge v8.3.0 ('Over the Horizon') 64bit
Библиотека кодирования : libebml v1.3.1 + libmatroska v1.4.2

Видео
Идентификатор : 1
Формат : AVC
Формат/Информация : Advanced Video Codec
Профиль формата : [email protected]
Параметр CABAC формата : Да
Параметр ReFrames формата : 5 кадров
Идентификатор кодека : V_MPEG4/ISO/AVC
Продолжительность : 1 ч. 25 м.
Вид битрейта : Переменный
Битрейт : 9895 Кбит/сек
Максимальный битрейт : 11,0 Мбит/сек
Ширина : 1920 пикселей
Высота : 800 пикселей
Соотношение сторон : 2,40:1
Режим частоты кадров : Постоянный
Частота кадров : 24,000 кадра/сек
Стандарт вещания : Component
Цветовое пространство : YUV
Субдискретизация насыщенности : 4:2:0
Битовая глубина : 8 бит
Тип развёртки : Прогрессивная
Бит/(Пиксели*Кадры) : 0.268
Размер потока : 5,92 Гбайт (96%)
Default : Да
Forced : Нет
Цветовой диапазон : Limited
Основные цвета : BT.709
Характеристики трансфера : BT.709
Коэффициенты матрицы : BT.709

Аудио
Идентификатор : 2
Формат : AC-3
Формат/Информация : Audio Coding 3
Расширение режима : CM (complete main)
Параметр Endianness формата : Big
Идентификатор кодека : A_AC3
Продолжительность : 1 ч. 25 м.
Вид битрейта : Постоянный
Битрейт : 448 Кбит/сек
Каналы : 2 канала
Расположение каналов : Front: L R
Частота : 48,0 КГц
Частота кадров : 31,250 кадров/сек (1536 spf)
Метод сжатия : С потерями
Размер потока : 275 Мбайт (4%)
Default : Да
Forced : Нет




Скачать Сахара через торрент http://img11.lostpic.net/2017/06/28/a037a9cfbe2d4ecd607305442d2f275e.png Скачать, смотреть онлайн Сахара бесплантно в хорошем качестве Описание: В величественной пустыне обитают два клана змей. Один из них, клан зелёных змеек, пользуется всеми благами природы. Заняв ... 10 10 11
Info! Золотая раздача, скачанное не засчитывается.
Торрент: Зарегистрирован [2017-06-28 05:36] · скачан: 334 раз
Статус: T временная
Размер: 6.19 GB
Как cкачать? Как скачать Сахара через торрент | UTorrent

% Раздел Тема Автор DL S | L
T Фильмы (мультфильмы) cо спонсором показа (Новинки AVI/MKV) [ 1.36 GB ] Сахара / Sahara | MVO | HDRip bober100 Скачать
1 | 0

28-11-2019 20:33  


Отключить вcю реклaмy на сайте, в т.ч. и в плеере онлайн просмотра!

29-06-2017 06:00 Сахара Скачать торрент  

верхняя ссылка с заработком это обман. Вас перекидывает на сайт игры Викинги: Война кланов



22-07-2017 20:30 Сахара Скачать торрент  

гамняный мульт!



    Дорогой пользователь! Огромная просьба, поблагодарите релизера, оцените раздачу и оставьте свои комментарий, если Вы скачали Сахара через торрент бесплатно!!
    Комментировать посты могут только пользователи прошедшие не сложную регистрацию
    Показать сообщения:    


    Сахара через торрент
    Скачать бесплатно Сахара
    Сахара скачать торрент
    Сахара смотреть онлайн
    Cкачать фильм Сахара бесплатно
    Сахара скачать торрент в хорошем качестве
    Сахара смотреть онлайн бесплатно в хорошем качестве
    Вы не можете начинать темы
    Вы не можете отвечать на сообщения
    Вы не можете редактировать свои сообщения
    Вы не можете удалять свои сообщения
    Вы не можете голосовать в опросах
    Вы не можете прикреплять файлы к сообщениям
    Вы можете скачивать файлы