Ссылка на приватное зеркало нашего сайта всего за 1$. Внимание количество ограничено!!!

2 сезон

iTunes

1 сезон

1

iTunes

iTunes

iTunes

1 сезон

RePack

30

ИГРА 18+

pack

ВАЖНО

!!Акция!!

Alien_RageХит недели

RePack

MK11
pack

Забери бонус

RePack

jed

!!Акция!!

Alien_Rage

RePack

fifa19

RePack

Assassins Creed: Odyssey

RePack

NEED FOR SPEED™ PAYBACK

4 сезон

9 сезон

Бесстыжие 9 сезон

Все сериалы

все сериалы на PB.wtf

RePack

FAR CRY 5
  

Бог простит, я - нет! / Dio perdona... Io no! (Джузеппе Колицци) [1967, вестерн, BDRip 1080p by msltel] MVO pb.wtf

Бог простит, я - нет! через торрент pb.wtf

Размер: 10.55 GB | Добавлен: 3 года 4 мес. назад | Торрент скачан:20 раз
Скачать  

28-06-2017 10:02 Бог простит, я - нет! Скачать торрент  

Название: Бог простит, я – нет!
Оригинальное название: Dio perdona... Io no!
Год выпуска: 1967
Страна: Италия, Испания
Жанр: вестерн
Продолжительность: 01:52:10
Перевод: профессиональный многоголосый

Режиссер: Джузеппе Колицци

В ролях: Теренс Хилл, Бад Спенсер, Фрэнк Вулф, Джина Ровере, Хосе Мануэль Мартин, Луис Барбу, Хоакин Бланко, Тито Гарсия, Франк Бранья, Антониетта Фиорито

Описание: По дороге из Эль Пасо ограблен поезд. Пропали 300 000 долларов, убиты все пассажиры. На поиски денег отправляется сыщик страховой компании Хатч со своим знакомым Кэтом Стивенсом. После недолгих размышлений они приходят к единому мнению: налёт на поезд мог совершить только один человек — Билл Сан Антонио. Однако Кэт убил Билла еще за 10 месяцев до этого разговора. Но, тем не менее, подробности преступления указывают совершенно отчетливо на работу Билла…



Качество: BDRip 1080p
Формат: MKV
Видео: MPEG-4 AVC, 12.8 Mбит/с, 1920x818, 24 кадр/с
Аудио 1: русский, AC3, 224 kbps, 2 ch [профессиональный многоголосый, со вставками одноголоски]
Аудио 2: итальянский, AC3, 448 kbps, 6 ch, 48 kHz [оригинал]
Имеются неименованные главы/чаптеры.
Общее
Уникальный идентификатор : 190752459813882743517673125282906256970 (0x8F819661F35C52BDA1E7185D4A4A364A)
Полное имя : D:\Video\Бог простит, я - нет.1967.BDRip.1080p by msltel.mkv
Формат : Matroska
Версия формата : Version 4 / Version 2
Размер файла : 10,5 Гбайт
Продолжительность : 1 ч. 52 м.
Общий поток : 13,5 Мбит/сек
Название фильма : Rip by msltel
Дата кодирования : UTC 2017-06-28 02:54:53
Программа кодирования : mkvmerge v8.2.0 ('World of Adventure') 64bit
Библиотека кодирования : libebml v1.3.1 + libmatroska v1.4.2

Видео
Идентификатор : 1
Формат : AVC
Формат/Информация : Advanced Video Codec
Профиль формата : High@L4.1
Параметр CABAC формата : Да
Параметр ReFrames формата : 4 кадра
Идентификатор кодека : V_MPEG4/ISO/AVC
Продолжительность : 1 ч. 52 м.
Битрейт : 12,8 Мбит/сек
Ширина : 1920 пикселей
Высота : 818 пикселей
Соотношение сторон : 2,35:1
Режим частоты кадров : Постоянный
Частота кадров : 24,000 кадра/сек
Цветовое пространство : YUV
Субдискретизация насыщенности : 4:2:0
Битовая глубина : 8 бит
Тип развёртки : Прогрессивная
Бит/(Пиксели*Кадры) : 0.339
Размер потока : 10,0 Гбайт (95%)
Библиотека кодирования : x264 core 146 r2538 121396c
Настройки программы : cabac=1 / ref=4 / deblock=1:-3:-2 / analyse=0x3:0x113 / me=umh / subme=11 / psy=1 / psy_rd=1.00:0.15 / mixed_ref=1 / me_range=32 / chroma_me=1 / trellis=2 / 8x8dct=1 / cqm=0 / deadzone=21,11 / fast_pskip=0 / chroma_qp_offset=-3 / threads=6 / lookahead_threads=1 / sliced_threads=0 / nr=0 / decimate=1 / interlaced=0 / bluray_compat=0 / constrained_intra=0 / bframes=16 / b_pyramid=2 / b_adapt=2 / b_bias=0 / direct=1 / weightb=1 / open_gop=0 / weightp=2 / keyint=230 / keyint_min=23 / scenecut=40 / intra_refresh=0 / rc_lookahead=40 / rc=crf / mbtree=0 / crf=20.6 / qcomp=0.60 / qpmin=0 / qpmax=69 / qpstep=4 / vbv_maxrate=62500 / vbv_bufsize=78125 / crf_max=0.0 / nal_hrd=none / filler=0 / ip_ratio=1.40 / pb_ratio=1.30 / aq=1:1.00
Язык : English
Default : Да
Forced : Нет

Аудио #1
Идентификатор : 2
Формат : AC-3
Формат/Информация : Audio Coding 3
Параметр Endianness формата : Big
Идентификатор кодека : A_AC3
Продолжительность : 1 ч. 52 м.
Вид битрейта : Постоянный
Битрейт : 224 Кбит/сек
Каналы : 2 канала
Расположение каналов : Front: L R
Частота : 48,0 КГц
Частота кадров : 31,250 кадров/сек (1536 spf)
Битовая глубина : 16 бит
Метод сжатия : С потерями
Размер потока : 180 Мбайт (2%)
Заголовок : MVO (со вставками одноголоски)
Язык : Russian
ServiceKind/String : Complete Main
Default : Да
Forced : Нет

Аудио #2
Идентификатор : 3
Формат : AC-3
Формат/Информация : Audio Coding 3
Параметр Endianness формата : Big
Идентификатор кодека : A_AC3
Продолжительность : 1 ч. 52 м.
Вид битрейта : Постоянный
Битрейт : 448 Кбит/сек
Каналы : 6 каналов
Расположение каналов : Front: L C R, Side: L R, LFE
Частота : 48,0 КГц
Частота кадров : 31,250 кадров/сек (1536 spf)
Битовая глубина : 16 бит
Метод сжатия : С потерями
Размер потока : 359 Мбайт (3%)
Заголовок : original
Язык : English
ServiceKind/String : Complete Main
Default : Нет
Forced : Нет

Меню
00:00:00.000 : :Chapter 01
00:11:05.000 : :Chapter 02
00:18:28.125 : :Chapter 03
00:28:09.875 : :Chapter 04
00:35:16.000 : :Chapter 05
00:43:38.000 : :Chapter 06
00:54:46.750 : :Chapter 07
01:06:06.250 : :Chapter 08
01:12:51.875 : :Chapter 09
01:23:43.875 : :Chapter 10
01:32:23.250 : :Chapter 11
01:40:27.250 : :Chapter 12
01:51:11.500 : :Chapter 13
01:51:41.625 : :Chapter 14
pb.wtf



Скачать Бог простит, я - нет! через торрент http://s010.radikal.ru/i311/1706/d9/e1070c311e26.jpg Скачать фильм Бог простит, я - нет! через торрент бесплантно в хорошем качестве Описание: По дороге из Эль Пасо ограблен поезд. Пропали 300 000 долларов, убиты все пассажиры. На поиски денег отправляется сыщик страховой ... 10 10 1
Info! Золотая раздача, скачанное не засчитывается.
Торрент: Зарегистрирован [2017-06-28 10:02] · скачан: 20 раз
Статус: √ проверено
Размер: 10.55 GB
Как cкачать? Как скачать Бог простит, я - нет! через торрент | qTorrent

% Раздел Тема Автор DL S | L
Фильмы [HD 720p, 1080p] (Хороший звук DUB, MVO) [ 4.49 GB ] Бог простит я - нет! / Dio perdona... Io no! [1967 BDRip 720p by msltel] MVO msltel Скачать
1 | 0

28-11-2019 20:33  

Отключить всю рекламу на сайте

    Дорогой пользователь! Огромная просьба, поблагодарите релизера, оцените раздачу и оставьте свои комментарий, если Вы скачали Бог простит, я - нет! через торрент бесплатно! Внесите свою лепту в развитие PiratBit!
    Комментировать посты могут только пользователи прошедшие не сложную регистрацию
    Показать сообщения:    

    Бог простит, я - нет! через торрент
    Скачать бесплатно Бог простит, я - нет!
    Бог простит, я - нет! скачать торрент
    Бог простит, я - нет! смотреть онлайн
    Cкачать фильм Бог простит, я - нет! бесплатно
    Бог простит, я - нет! скачать торрент в хорошем качестве
    Бог простит, я - нет! смотреть онлайн бесплатно в хорошем качестве


    Вы не можете начинать темы
    Вы не можете отвечать на сообщения
    Вы не можете редактировать свои сообщения
    Вы не можете удалять свои сообщения
    Вы не можете голосовать в опросах
    Вы не можете прикреплять файлы к сообщениям
    Вы можете скачивать файлы