Ссылка на приватное зеркало нашего сайта всего за 1$. Внимание количество ограничено!!!

2 сезон

iTunes

1 сезон

1

iTunes

iTunes

iTunes

1 сезон

RePack

30

ИГРА 18+

pack

ВАЖНО

!!Акция!!

Alien_RageХит недели

RePack

MK11
pack

Забери бонус

RePack

jed

!!Акция!!

Alien_Rage

RePack

fifa19

RePack

Assassins Creed: Odyssey

RePack

NEED FOR SPEED™ PAYBACK

4 сезон

9 сезон

Бесстыжие 9 сезон

Все сериалы

все сериалы на PB.wtf

RePack

FAR CRY 5
  

Охранник / The Sentinel (Кларк Джонсон) [2006, боевик, триллер, криминал, BDRip 720p by msltel] DUB, MVO, DVO, AVO pb.wtf

Охранник через торрент pb.wtf

Размер: 5.06 GB | Добавлен: 3 года 3 мес. назад | Торрент скачан:97 раз
Скачать  

28-06-2017 11:23 Охранник Скачать торрент  

Название: Охранник
Оригинальное название: The Sentinel
Год выпуска: 2006
Страна: США
Жанр: боевик, триллер, криминал
Продолжительность: 01:48:09
Перевод: дублированный, профессиональный многоголосый, профессиональный двухголосый, авторский

Режиссер: Кларк Джонсон

В ролях: Майкл Дуглас, Кифер Сазерленд, Ева Лонгория, Мартин Донован, Ричи Костер, Ким Бейсингер, Блэр Браун, Дэвид Раш, Кристин Леман, Рейнор Шайни

Описание: Специальный агент Пит Гаррисон убеждён, что в Белом Доме завёлся предатель. Его убеждение находит подтверждение после убийства одного из охранников президента. Однако подозрение падает на самого Гаррисона. Его отстраняют от дел и, ко всему прочему, вменяют в вину связь с первой леди. Жизнь президентской семьи в опасности. Пытаясь найти предателя, Гаррисон вынужден воевать с системой, которую он сам создал... Фильм снят по мотивам романа Джералд Петевич «Охранник» (The Sentinel, 2003).



Качество: BDRip 720p
Формат: MKV
Видео: MPEG-4 AVC, 4523 Кбит/с, 1280x534, 23.976 кадр/с
Аудио 1: русский, AC3, 448 kbps, 6 ch, 48 kHz [дублированный]
Аудио 2: русский, AC3, 384 kbps, 6 ch, 48 kHz [профессиональный многоголосый]
Аудио 3: русский, AC3, 448 kbps, 6 ch, 48 kHz [профессиональный двухголосый, Пётр Гланц и Инна Королёва]
Аудио 4: русский, AC3, 448 kbps, 6 ch, 48 kHz [авторский, Владимир Королёв]
Аудио 5: английский, AC3, 448 kbps, 6 ch, 48 kHz [оригинал]
Субтитры 1: русские
Субтитры 2: английские
Имеются неименованные главы/чаптеры.
Общее
Уникальный идентификатор : 239130150370965548961183697178690606226 (0xB3E6CAAE3248E69F8B0369A0FBFC5492)
Полное имя : D:\Video\Охранник.2006.BDRip.720p by msltel.mkv
Формат : Matroska
Версия формата : Version 4 / Version 2
Размер файла : 5,06 Гбайт
Продолжительность : 1 ч. 48 м.
Общий поток : 6695 Кбит/сек
Название фильма : Rip by msltel
Дата кодирования : UTC 2017-06-28 05:28:32
Программа кодирования : mkvmerge v8.2.0 ('World of Adventure') 64bit
Библиотека кодирования : libebml v1.3.1 + libmatroska v1.4.2

Видео
Идентификатор : 1
Формат : AVC
Формат/Информация : Advanced Video Codec
Профиль формата : High@L4.1
Параметр CABAC формата : Да
Параметр ReFrames формата : 9 кадров
Идентификатор кодека : V_MPEG4/ISO/AVC
Продолжительность : 1 ч. 48 м.
Битрейт : 4523 Кбит/сек
Ширина : 1280 пикселей
Высота : 534 пикселя
Соотношение сторон : 2,40:1
Режим частоты кадров : Постоянный
Частота кадров : 23,976 (24000/1001) кадра/сек
Цветовое пространство : YUV
Субдискретизация насыщенности : 4:2:0
Битовая глубина : 8 бит
Тип развёртки : Прогрессивная
Бит/(Пиксели*Кадры) : 0.276
Размер потока : 3,41 Гбайт (67%)
Библиотека кодирования : x264 core 146 r2538 121396c
Настройки программы : cabac=1 / ref=9 / deblock=1:-3:-2 / analyse=0x3:0x113 / me=umh / subme=11 / psy=1 / psy_rd=1.00:0.15 / mixed_ref=1 / me_range=32 / chroma_me=1 / trellis=2 / 8x8dct=1 / cqm=0 / deadzone=21,11 / fast_pskip=0 / chroma_qp_offset=-3 / threads=6 / lookahead_threads=1 / sliced_threads=0 / nr=0 / decimate=1 / interlaced=0 / bluray_compat=0 / constrained_intra=0 / bframes=6 / b_pyramid=2 / b_adapt=2 / b_bias=0 / direct=1 / weightb=1 / open_gop=0 / weightp=2 / keyint=230 / keyint_min=23 / scenecut=40 / intra_refresh=0 / rc_lookahead=40 / rc=crf / mbtree=0 / crf=18.0 / qcomp=0.60 / qpmin=0 / qpmax=69 / qpstep=4 / vbv_maxrate=62500 / vbv_bufsize=78125 / crf_max=0.0 / nal_hrd=none / filler=0 / ip_ratio=1.40 / pb_ratio=1.30 / aq=1:1.00
Язык : English
Default : Да
Forced : Нет

Аудио #1
Идентификатор : 2
Формат : AC-3
Формат/Информация : Audio Coding 3
Параметр Endianness формата : Big
Идентификатор кодека : A_AC3
Продолжительность : 1 ч. 48 м.
Вид битрейта : Постоянный
Битрейт : 448 Кбит/сек
Каналы : 6 каналов
Расположение каналов : Front: L C R, Side: L R, LFE
Частота : 48,0 КГц
Частота кадров : 31,250 кадров/сек (1536 spf)
Битовая глубина : 16 бит
Метод сжатия : С потерями
Размер потока : 347 Мбайт (7%)
Заголовок : DUB
Язык : Russian
ServiceKind/String : Complete Main
Default : Да
Forced : Нет

Аудио #2
Идентификатор : 3
Формат : AC-3
Формат/Информация : Audio Coding 3
Параметр Endianness формата : Big
Идентификатор кодека : A_AC3
Продолжительность : 1 ч. 48 м.
Вид битрейта : Постоянный
Битрейт : 384 Кбит/сек
Каналы : 6 каналов
Расположение каналов : Front: L C R, Side: L R, LFE
Частота : 48,0 КГц
Частота кадров : 31,250 кадров/сек (1536 spf)
Битовая глубина : 16 бит
Метод сжатия : С потерями
Размер потока : 297 Мбайт (6%)
Заголовок : MVO
Язык : Russian
ServiceKind/String : Complete Main
Default : Нет
Forced : Нет

Аудио #3
Идентификатор : 4
Формат : AC-3
Формат/Информация : Audio Coding 3
Параметр Endianness формата : Big
Идентификатор кодека : A_AC3
Продолжительность : 1 ч. 48 м.
Вид битрейта : Постоянный
Битрейт : 448 Кбит/сек
Каналы : 6 каналов
Расположение каналов : Front: L C R, Side: L R, LFE
Частота : 48,0 КГц
Частота кадров : 31,250 кадров/сек (1536 spf)
Битовая глубина : 16 бит
Метод сжатия : С потерями
Размер потока : 346 Мбайт (7%)
Заголовок : DVO (Пётр Гланц и Инна Королёва)
Язык : Russian
ServiceKind/String : Complete Main
Default : Нет
Forced : Нет

Аудио #4
Идентификатор : 5
Формат : AC-3
Формат/Информация : Audio Coding 3
Параметр Endianness формата : Big
Идентификатор кодека : A_AC3
Продолжительность : 1 ч. 48 м.
Вид битрейта : Постоянный
Битрейт : 448 Кбит/сек
Каналы : 6 каналов
Расположение каналов : Front: L C R, Side: L R, LFE
Частота : 48,0 КГц
Частота кадров : 31,250 кадров/сек (1536 spf)
Битовая глубина : 16 бит
Метод сжатия : С потерями
Размер потока : 346 Мбайт (7%)
Заголовок : AVO (Владимир Королёв)
Язык : Russian
ServiceKind/String : Complete Main
Default : Нет
Forced : Нет

Аудио #5
Идентификатор : 6
Формат : AC-3
Формат/Информация : Audio Coding 3
Параметр Endianness формата : Big
Идентификатор кодека : A_AC3
Продолжительность : 1 ч. 48 м.
Вид битрейта : Постоянный
Битрейт : 448 Кбит/сек
Каналы : 6 каналов
Расположение каналов : Front: L C R, Side: L R, LFE
Частота : 48,0 КГц
Частота кадров : 31,250 кадров/сек (1536 spf)
Битовая глубина : 16 бит
Метод сжатия : С потерями
Размер потока : 346 Мбайт (7%)
Заголовок : original
Язык : English
ServiceKind/String : Complete Main
Default : Нет
Forced : Нет

Текст #1
Идентификатор : 7
Формат : UTF-8
Идентификатор кодека : S_TEXT/UTF8
Идентификатор кодека/Информация : UTF-8 Plain Text
Продолжительность : 1 ч. 47 м.
Битрейт : 89 бит/сек
ElementCount : 1143
Размер потока : 70,0 Кбайт (0%)
Заголовок : русские
Язык : Russian
Default : Нет
Forced : Нет

Текст #2
Идентификатор : 8
Формат : UTF-8
Идентификатор кодека : S_TEXT/UTF8
Идентификатор кодека/Информация : UTF-8 Plain Text
Продолжительность : 1 ч. 42 м.
Битрейт : 62 бит/сек
ElementCount : 1077
Размер потока : 47,0 Кбайт (0%)
Заголовок : английские
Язык : English
Default : Нет
Forced : Нет

Меню
00:00:00.000 : en:Chapter 01
00:08:20.333 : en:Chapter 02
00:18:22.351 : en:Chapter 03
00:29:09.747 : en:Chapter 04
00:38:38.816 : en:Chapter 05
00:48:13.557 : en:Chapter 06
00:58:16.534 : en:Chapter 07
01:07:35.760 : en:Chapter 08
01:20:31.743 : en:Chapter 09
01:25:40.677 : en:Chapter 10
01:32:00.473 : en:Chapter 11
01:43:28.124 : en:Chapter 12
pb.wtf



Скачать Охранник через торрент http://s48.radikal.ru/i119/1706/5e/0c57ee88fbd1.jpg Скачать фильм Охранник через торрент бесплантно в хорошем качестве Описание: Специальный агент Пит Гаррисон убеждён, что в Белом Доме завёлся предатель. Его убеждение находит подтверждение после убийства ... 9.5 10 2
Info! Золотая раздача, скачанное не засчитывается.
Торрент: Зарегистрирован [2017-06-28 11:23] · скачан: 97 раз
Статус: √ проверено
Размер: 5.06 GB
Как cкачать? Как скачать Охранник через торрент | qTorrent

% Раздел Тема Автор DL S | L
Фильмы [HD 720p, 1080p] (Хороший звук DUB, MVO) [ 13.28 GB ] Охранник / The Sentinel [2006 BDRip 1080p by msltel] DUB MVO DVO AVO msltel Скачать
1 | 0

28-11-2019 20:33  

Отключить всю рекламу на сайте

    Дорогой пользователь! Огромная просьба, поблагодарите релизера, оцените раздачу и оставьте свои комментарий, если Вы скачали Охранник через торрент бесплатно! Внесите свою лепту в развитие PiratBit!
    Комментировать посты могут только пользователи прошедшие не сложную регистрацию
    Показать сообщения:    

    Охранник через торрент
    Скачать бесплатно Охранник
    Охранник скачать торрент
    Охранник смотреть онлайн
    Cкачать фильм Охранник бесплатно
    Охранник скачать торрент в хорошем качестве
    Охранник смотреть онлайн бесплатно в хорошем качестве


    Вы не можете начинать темы
    Вы не можете отвечать на сообщения
    Вы не можете редактировать свои сообщения
    Вы не можете удалять свои сообщения
    Вы не можете голосовать в опросах
    Вы не можете прикреплять файлы к сообщениям
    Вы можете скачивать файлы