2 сезон

iTunes

MVO

1

2 сезон

iTunes

iTunes

1 сезон

RePack

30

Новинка

ВАЖНО

ИГРА 18+

pack

RePack

MK11
pack

Легкие деньги

RePack

jed

RePack

fifa19

RePack

RDR2

RePack

NEED FOR SPEED™ PAYBACK

4 сезон

9 сезон

Бесстыжие 9 сезон

Все сериалы

все сериалы на PB.wtf

RePack

FAR CRY 5

Anonymous, доброе утро, мы не успеваем собрать деньги на оплату серверов за декабрь и январь, помогите нам пожалуйста в это трудное время. В качестве благодарности мы отключим Вам всю рекламу на сайте (укажите свой ник в строку Ваше имя)!

×
  
Magnet ссылка

Конг: Остров черепа в 3Д / Kong: Skull Island 3D (Джордан Вот-Робертс ) [2017, фантастика, фэнтези, боевик, приключения, BDRip 1080p] Дубляж | Half OverUnder pb.wtf

Конг: Остров черепа в 3Д через торрент pb.wtf

Размер: 12.29 GB | Добавлен: 3 года 6 мес. назад | Торрент скачан:663 раза
Скачать  

28-06-2017 12:11 Конг: Остров черепа в 3Д Скачать торрент  

Конг: Остров черепа в 3Д / Kong: Skull Island 3D«Пробуждение Кинг-Конга»
Год выпуска: 2017
Страна: США
Жанр: фантастика, фэнтези, боевик, приключения
Продолжительность: 01:58:23
Перевод: Профессиональный дублированный (лицензия)
Субтитры: русские (Форсированные (BD 3D edited)), русские (Полные (BD 3D)), украинские (Форсированные), английские (Full), английские (SDH (BD 3D))
Режиссер: Джордан Вот-Робертс
В ролях:
Том Хиддлстон (James Conrad), Сэмюэл Л. Джексон (Preston Packard), Джон Гудман (Bill Randa), Бри Ларсон (Mason Weaver), Цзин Тянь (San), Тоби Кеббелл (Jack Chapman / Kong (motion capture)), Джон Ортис (Victor Nieves), Кори Хоукинс (Houston Brooks), Джейсон Митчелл (Mills), Ши Уигхэм (Cole), Томас Манн (Slivko), Терри Нотари (Kong)
Описание:
На неизвестный остров в Тихом океане попадает команда ученых, военных и искателей приключений. Они вторгаются во владения могучего Конга и тем самым развязывают сражение между человеком и природой. Очень скоро исследовательская миссия превращается в игру на выживание, ее участники вынуждены буквально прорубать себе путь к спасению.
Рейтинг:

MPAA: PG-13 - Детям до 13 лет просмотр не желателен
Качество: BDRip 1080p (by Ash61)
Формат: MKV
Формат 3D: Half OverUnder / Вертикальная анаморфная стереопара
Видео: AVC, 1920x1080 (16:9), 13284 kbps, 23,976 fps, 0,267 bpp
Аудио №1: русский / AC3 / 5.1 / 48 kHz / 448 kbps / || (Дубляж - BD 3D Eur)
Аудио №2: украинский / AC3 / 2.0 / 48 kHz / 192 kbps / (Дубляж - iTunes)
Аудио №3: английский / AC3 / 5.1 / 48 kHz / 640 kbps / (Original - BD 3D Eur)
Навигация по главам: есть

Субтитры Внешние (UTF-8): Русские Форсированные (включены по умолчанию), Русские Полные, Украинские Форсированные
[code]General
Unique ID : 214220951493350907477664597873780727162 (0xA129745B65CA6EAAA37C606205621D7A)
Complete name : Kong.SkullIsland(2017)3D-halfOU(Ash61).mkv
Format : Matroska
Format version : Version 2
File size : 12.3 GiB
Duration : 1 h 58 min
Overall bit rate : 14.9 Mb/s
Movie name : Конг: Остров черепа / Kong: Skull Island (2017) в 3Д
Encoded date : UTC 2017-06-27 01:34:14
Writing application : mkvmerge v5.8.0 ('No Sleep / Pillow') built on Sep 2 2012 15:37:04
Writing library : libebml v1.2.3 + libmatroska v1.3.0

Video
ID : 1
Format : AVC
Format/Info : Advanced Video Codec
Format profile : High@L4.1
Format settings, CABAC : Yes
Format settings, ReFrames : 4 frames
Codec ID : V_MPEG4/ISO/AVC
Duration : 1 h 58 min
Bit rate : 13.3 Mb/s
Width : 1 920 pixels
Height : 1 080 pixels
Display aspect ratio : 16:9
Frame rate mode : Constant
Frame rate : 23.976 (24000/1001) FPS
Color space : YUV
Chroma subsampling : 4:2:0
Bit depth : 8 bits
Scan type : Progressive
Bits/(Pixel*Frame) : 0.267
Stream size : 11.0 GiB (89%)
Title : BDRip by Ash61
Writing library : x264 core 146 r2538 121396c
Encoding settings : cabac=1 / ref=4 / deblock=1:-3:-3 / analyse=0x3:0x113 / me=umh / subme=10 / psy=1 / psy_rd=1.00:0.00 / mixed_ref=1 / me_range=32 / chroma_me=1 / trellis=2 / 8x8dct=1 / cqm=0 / deadzone=21,11 / fast_pskip=1 / chroma_qp_offset=-2 / threads=12 / lookahead_threads=3 / sliced_threads=0 / nr=0 / decimate=1 / interlaced=0 / bluray_compat=0 / constrained_intra=0 / bframes=12 / b_pyramid=2 / b_adapt=2 / b_bias=0 / direct=3 / weightb=1 / open_gop=0 / weightp=2 / keyint=250 / keyint_min=23 / scenecut=40 / intra_refresh=0 / rc_lookahead=60 / rc=crf / mbtree=0 / crf=16.0 / qcomp=0.70 / qpmin=0 / qpmax=69 / qpstep=4 / vbv_maxrate=40000 / vbv_bufsize=30000 / crf_max=0.0 / nal_hrd=none / filler=0 / frame-packing=4 / ip_ratio=1.40 / pb_ratio=1.30 / aq=1:0.70
Language : English
Default : Yes
Forced : No

Audio #1
ID : 2
Format : AC-3
Format/Info : Audio Coding 3
Mode extension : CM (complete main)
Format settings, Endianness : Big
Codec ID : A_AC3
Duration : 1 h 58 min
Bit rate mode : Constant
Bit rate : 448 kb/s
Channel(s) : 6 channels
Channel positions : Front: L C R, Side: L R, LFE
Sampling rate : 48.0 kHz
Frame rate : 31.250 FPS (1536 spf)
Compression mode : Lossy
Stream size : 379 MiB (3%)
Title : Дубляж - BD 3D
Language : Russian
Default : Yes
Forced : No

Audio #2
ID : 3
Format : AC-3
Format/Info : Audio Coding 3
Mode extension : CM (complete main)
Format settings, Endianness : Big
Codec ID : A_AC3
Duration : 1 h 58 min
Bit rate mode : Constant
Bit rate : 192 kb/s
Channel(s) : 2 channels
Channel positions : Front: L R
Sampling rate : 48.0 kHz
Frame rate : 31.250 FPS (1536 spf)
Compression mode : Lossy
Stream size : 163 MiB (1%)
Title : Дубляж - iTunes
Language : Ukrainian
Default : No
Forced : No

Audio #3
ID : 4
Format : AC-3
Format/Info : Audio Coding 3
Mode extension : CM (complete main)
Format settings, Endianness : Big
Codec ID : A_AC3
Duration : 1 h 58 min
Bit rate mode : Constant
Bit rate : 640 kb/s
Channel(s) : 6 channels
Channel positions : Front: L C R, Side: L R, LFE
Sampling rate : 48.0 kHz
Frame rate : 31.250 FPS (1536 spf)
Compression mode : Lossy
Stream size : 542 MiB (4%)
Title : Original - BD 3D
Language : English
Default : No
Forced : No

Text #1
ID : 5
Format : UTF-8
Codec ID : S_TEXT/UTF8
Codec ID/Info : UTF-8 Plain Text
Title : Форсированные (BD 3D edited)
Language : Russian
Default : Yes
Forced : No

Text #2
ID : 6
Format : UTF-8
Codec ID : S_TEXT/UTF8
Codec ID/Info : UTF-8 Plain Text
Title : Полные (BD 3D)
Language : Russian
Default : No
Forced : No

Text #3
ID : 7
Format : UTF-8
Codec ID : S_TEXT/UTF8
Codec ID/Info : UTF-8 Plain Text
Title : Форсированные
Language : Ukrainian
Default : No
Forced : No

Text #4
ID : 8
Format : UTF-8
Codec ID : S_TEXT/UTF8
Codec ID/Info : UTF-8 Plain Text
Title : Full
Language : English
Default : No
Forced : No

Text #5
ID : 9
Format : UTF-8
Codec ID : S_TEXT/UTF8
Codec ID/Info : UTF-8 Plain Text
Title : SDH (BD 3D)
Language : English
Default : No
Forced : No

Menu
00:00:00.000 : :1
00:08:54.743 : :2
00:19:51.774 : :3
00:30:01.133 : :4
00:40:00.106 : :5
00:50:13.260 : :6
01:00:49.729 : :7
01:10:29.600 : :8
01:18:05.890 : :9
01:30:12.657 : :10
01:39:09.026 : :11
01:47:05.836 : :12


скриншот   скриншот   скриншот   скриншот   скриншот  
pb.wtf



Скачать Конг: Остров черепа в 3Д через торрент http://i92.fastpic.ru/big/2017/0628/01/08a20262cbc8fee84cf7c0a066c52701.png Скачать фильм Конг: Остров черепа в 3Д через торрент бесплантно в хорошем качестве Описание: На неизвестный остров в Тихом океане попадает команда ученых, военных и искателей приключений. Они вторгаются во владения ... 9.6 10 9
Info! Золотая раздача, скачанное не засчитывается.
Торрент: Зарегистрирован [2017-06-28 12:11] · скачан: 663 раз
Статус: √ проверено
Размер: 12.29 GB
Как cкачать? Как скачать Конг: Остров черепа в 3Д через торрент | UTorrent

28-11-2019 20:33  

Отключить всю рекламу на сайте

02-07-2017 18:46 Конг: Остров черепа в 3Д Скачать торрент  

Если честно, очень скучный фильм.pb.wtf



    Дорогой пользователь! Огромная просьба, поблагодарите релизера, оцените раздачу и оставьте свои комментарий, если Вы скачали Конг: Остров черепа в 3Д через торрент бесплатно! Внесите свою лепту в развитие PiratBit!
    Комментировать посты могут только пользователи прошедшие не сложную регистрацию
    Показать сообщения:    

    Конг: Остров черепа в 3Д через торрент
    Скачать бесплатно Конг: Остров черепа в 3Д
    Конг: Остров черепа в 3Д скачать торрент
    Конг: Остров черепа в 3Д смотреть онлайн
    Cкачать фильм Конг: Остров черепа в 3Д бесплатно
    Конг: Остров черепа в 3Д скачать торрент в хорошем качестве
    Конг: Остров черепа в 3Д смотреть онлайн бесплатно в хорошем качестве


    Вы не можете начинать темы
    Вы не можете отвечать на сообщения
    Вы не можете редактировать свои сообщения
    Вы не можете удалять свои сообщения
    Вы не можете голосовать в опросах
    Вы не можете прикреплять файлы к сообщениям
    Вы можете скачивать файлы