Ссылка на приватное зеркало нашего сайта всего за 1$. Внимание количество ограничено!!!

2 сезон

iTunes

1 сезон

1

2 сезон

2 сезон

iTunes

1 сезон

RePack

30

Ultimate

ВАЖНО

ИГРА 18+

pack

RePack

MK11
pack

Забери бонус

RePack

jed

!!Акция!!

Alien_Rage

RePack

fifa19

RePack

Assassins Creed: Odyssey

RePack

NEED FOR SPEED™ PAYBACK

4 сезон

9 сезон

Бесстыжие 9 сезон

Все сериалы

все сериалы на PB.wtf

RePack

FAR CRY 5
  

Его собачье дело / Once Upon a Time in Venice (Марк Каллен) [2017, боевик, триллер, комедия, WEB-DL 720p] Дубляж - [Лицензия / iTunes] pb.wtf

Его собачье дело через торрент pb.wtf

Раздают: 1 [ 0 KB/s ]
Размер: 3.19 GB | Добавлен: 3 года 4 мес. назад | Торрент скачан:294 раза
Скачать  

28-06-2017 20:40 Его собачье дело Скачать торрент  

Его собачье дело / Once Upon a Time in Venice
««Ну очень крепкие орешки»»

Год выпуска: 2017
Страна: США
Жанр: боевик, триллер, комедия
Продолжительность: 01:34:07
Перевод: Дубляж - [Лицензия / iTunes]
Субтитры: английские (Full)
Режиссер: Марк Каллен
В ролях:

Брюс Уиллис (Steve Ford), Джейсон Момоа (Spider), Джон Гудман (Dave), Томас Миддлдитч (John), Фамке Янссен (Katey), Адам Голдберг (Lew the Jew), Элизабет Рём (Anne phillips), Стефани Сигман (Lupe), Вуд Харрис (Prince), Эмили Робинсон (Taylor), Джессика Гомес (Nola), Калети Уильямс (Manu)
Описание:
Действие фильма будет происходить в Лос-Анджелесе. Профессиональная и личная жизнь главного героя пошла под откос, когда его пса Бадди похищает группа бандитов. Чтобы вернуть любимого питомца, частный детектив соглашается выполнять поручения преступников. Но пока он занят возвращением четвероногого друга, по его следам идут враги, среди которых двое суровых парней из Самоа, подручные ростовщика, которому герой задолжал деньги.
Рейтинг:

Качество: WEB-DL 720p
Формат: MKV
Видео: AVC, 1280x530 (2.40:1), 4080 kbps, 23,976 fps, 0,251 bpp
Аудио №1: русский / AC3 / 5.1 / 48 kHz / 384 kbps / |Дубляж|
Аудио №2: английский / AC3 / 5.1 / 48 kHz / 384 kbps /
Навигация по главам: есть
Релиз от:
General
Unique ID : 175262794509187228453069724504928693078 (0x83DA62EBA638E830B617419739DE2B56)
Complete name : C:Once.Upon.a.Time.in.Venice.2017.WEB-DL.720p.ExKinoRay.mkv
Format : Matroska
Format version : Version 4 / Version 2
File size : 3.19 GiB
Duration : 1 h 34 min
Overall bit rate : 4 850 kb/s
Encoded date : UTC 2017-06-28 19:28:47
Writing application : mkvmerge v13.0.0 ('The Juggler') 64bit
Writing library : libebml v1.3.4 + libmatroska v1.4.5

Video
ID : 1
Format : AVC
Format/Info : Advanced Video Codec
Format profile : Main@L3.1
Format settings, CABAC : No
Format settings, ReFrames : 2 frames
Codec ID : V_MPEG4/ISO/AVC
Duration : 1 h 34 min
Bit rate : 4 080 kb/s
Width : 1 280 pixels
Height : 530 pixels
Display aspect ratio : 2.40:1
Frame rate mode : Constant
Frame rate : 23.976 FPS
Color space : YUV
Chroma subsampling : 4:2:0
Bit depth : 8 bits
Scan type : Progressive
Bits/(Pixel*Frame) : 0.251
Stream size : 2.68 GiB (84%)
Language : English
Default : Yes
Forced : No
Color range : Limited
Color primaries : BT.709
Transfer characteristics : BT.709
Matrix coefficients : BT.709

Audio #1
ID : 2
Format : AC-3
Format/Info : Audio Coding 3
Format settings, Endianness : Big
Codec ID : A_AC3
Duration : 1 h 34 min
Bit rate mode : Constant
Bit rate : 384 kb/s
Channel(s) : 6 channels
Channel positions : Front: L C R, Side: L R, LFE
Sampling rate : 48.0 kHz
Frame rate : 31.250 FPS (1536 spf)
Bit depth : 16 bits
Compression mode : Lossy
Stream size : 258 MiB (8%)
Title : iTunes
Language : Russian
Service kind : Complete Main
Default : Yes
Forced : No

Audio #2
ID : 3
Format : AC-3
Format/Info : Audio Coding 3
Format settings, Endianness : Big
Codec ID : A_AC3
Duration : 1 h 34 min
Bit rate mode : Constant
Bit rate : 384 kb/s
Channel(s) : 6 channels
Channel positions : Front: L C R, Side: L R, LFE
Sampling rate : 48.0 kHz
Frame rate : 31.250 FPS (1536 spf)
Bit depth : 16 bits
Compression mode : Lossy
Stream size : 258 MiB (8%)
Title : Original
Language : English
Service kind : Complete Main
Default : No
Forced : No

Text
ID : 4
Format : UTF-8
Codec ID : S_TEXT/UTF8
Codec ID/Info : UTF-8 Plain Text
Duration : 1 h 30 min
Bit rate : 71 b/s
Count of elements : 1426
Stream size : 47.1 KiB (0%)
Title : Full
Language : English
Default : No
Forced : No

Menu
00:00:00.000 : en:1
00:11:39.366 : en:2
00:20:29.562 : en:3
00:31:51.285 : en:4
00:41:57.641 : en:5
00:52:00.535 : en:6
01:01:14.422 : en:7
01:10:29.685 : en:8
01:21:39.730 : en:9
01:29:47.676 : en:10
Скриншоты:
скриншот   скриншот   скриншот  
pb.wtf



Скачать Его собачье дело через торрент http://i95.fastpic.ru/big/2017/0629/1f/09c7abbe8b82f0e43687606df1acf91f.jpg Скачать фильм Его собачье дело через торрент бесплантно в хорошем качестве Описание: Действие фильма будет происходить в Лос-Анджелесе. Профессиональная и личная жизнь главного героя пошла под откос, когда его пса ... 9 10 6
Торрент: Зарегистрирован [2017-06-28 20:40] · скачан: 294 раз
Статус: √ проверено
Размер: 3.19 GB
Как cкачать? Как скачать Его собачье дело через торрент | qTorrent

% Раздел Тема Автор DL S | L
Фильмы [HD 720p, 1080p] (Хороший звук DUB, MVO) [ 7.93 GB ] Его собачье дело / Once Upon a Time in Venice [2017 BDRip 1080p] bober100 Скачать
1 | 0
Фильмы 2017 [DVDrip, WEB-DLRip, HDrip] (DUB, MVO) [ 2.32 GB ] Его собачье дело / Once Upon a Time in Venice [2017 BDRip-AVC] DUB [] +MVO bober100 Скачать
1 | 0
Фильмы 2017 [DVDrip, WEB-DLRip, HDrip] (DUB, MVO) [ 1.46 GB ] Его собачье дело / Once Upon a Time in Venice [2017 BDRip] - [] Twi7ter Скачать
1 | 0
Фильмы 2017 [DVDrip, WEB-DLRip, HDrip] (DUB, MVO) [ 1.45 GB ] Его собачье дело / Once Upon a Time in Venice [2017 BDRip-AVC] - ExKinoRay Enigma2010 Скачать
1 | 0
Фильмы (Blu-ray, BD-Remux, HDDVD) [ 28.62 GB ] Его собачье дело / Once Upon a Time in Venice [2017 BD Remux 1080p] DUB+AVO [] bober100 Скачать
1 | 0
Фильмы с авторской озвучкой [ 1.69 GB ] Его собачье дело / Однажды в Венисе / Once Upon a Time in Venice [2017 BDRip-AVC] [AVO] ) killermax2013 Скачать
2 | 0
Фильмы (Blu-ray, BD-Remux, HDDVD) [ 17.56 GB ] Его собачье дело / Once Upon a Time in Venice [2017 BD Remux 1080p] DUB +MVO bober100 Скачать
1 | 0

28-11-2019 20:33  

Отключить всю рекламу на сайте

    Дорогой пользователь! Огромная просьба, поблагодарите релизера, оцените раздачу и оставьте свои комментарий, если Вы скачали Его собачье дело через торрент бесплатно! Внесите свою лепту в развитие PiratBit!
    Комментировать посты могут только пользователи прошедшие не сложную регистрацию
    Показать сообщения:    

    Его собачье дело через торрент
    Скачать бесплатно Его собачье дело
    Его собачье дело скачать торрент
    Его собачье дело смотреть онлайн
    Cкачать фильм Его собачье дело бесплатно
    Его собачье дело скачать торрент в хорошем качестве
    Его собачье дело смотреть онлайн бесплатно в хорошем качестве


    Вы не можете начинать темы
    Вы не можете отвечать на сообщения
    Вы не можете редактировать свои сообщения
    Вы не можете удалять свои сообщения
    Вы не можете голосовать в опросах
    Вы не можете прикреплять файлы к сообщениям
    Вы можете скачивать файлы