Ссылка на приватное зеркало нашего сайта всего за 1$. Внимание количество ограничено!!!

2 сезон

iTunes

1 сезон

1

iTunes

iTunes

iTunes

1 сезон

RePack

30

ИГРА 18+

pack

ВАЖНО

!!Акция!!

Alien_RageХит недели

RePack

MK11
pack

Забери бонус

RePack

jed

!!Акция!!

Alien_Rage

RePack

fifa19

RePack

Assassins Creed: Odyssey

RePack

NEED FOR SPEED™ PAYBACK

4 сезон

9 сезон

Бесстыжие 9 сезон

Все сериалы

все сериалы на PB.wtf

RePack

FAR CRY 5
  

Жмот / Radin ! (Фред Кавайе) [2016, комедия, BDRip 1080p] Дубляж - [Лицензия / iTunes] pb.wtf

Жмот через торрент pb.wtf

Размер: 5.96 GB | Добавлен: 3 года 3 мес. назад | Торрент скачан:573 раза
Скачать  

28-06-2017 21:05 Жмот Скачать торрент  

Жмот / Radin !
««Меняю деньги на любовь...»»

Год выпуска: 2016
Страна: Франция
Жанр: комедия
Продолжительность: 01:30:11
Перевод: Дубляж - [Лицензия / iTunes]
Режиссер: Фред Кавайе
В ролях:

Дэни Бун (François Gautier), Лоранс Арне (Valérie), Ноэми Шмидт (Laura), Патрик Ридремон (Cédric), Кристоф Канар (Gilles), Кристоф Фавр (Demeester), Ивонн Граделе (Convive réception charitative), Карина Маримон (Carole), Изабель Зьенталь, Одри Родс-Грег (Laura (8 ans)), Марк де Панда (Ouvreur), Пьер Диот
Описание:
Франсуа Готье - виртуозный скрипач. Но за талант, как водится, надо платить. У музыканта серьезный недостаток: он невероятно скуп. Мания экономить превращает его в одержимого, а любой платеж ввергает в панический ужас. Но однажды его жизнь резко меняется.
Рейтинг:

Качество: BDRip 1080p
Формат: MKV
Видео: AVC, 1920x804 (2.40:1), 7569 kbps, 24 fps, 0,204 bpp
Аудио №1: русский / AC3 / 5.1 / 48 kHz / 384 kbps / |Дубляж|
Аудио №2: французский / DTS / 5.1 / 48 kHz / 1509 kbps / 24 bit
Навигация по главам: есть
Релиз от:
General
Unique ID : 235050562120359047286935818088781866184 (0xB0D517734FC4148AAFAE4B4EDC5264C8)
Complete name : E:\Torrent\film\Radin!.BDRip.1080.ExKinoRay.mkv
Format : Matroska
Format version : Version 4 / Version 2
File size : 5.96 GiB
Duration : 1 h 30 min
Overall bit rate : 9 460 kb/s
Encoded date : UTC 2017-06-28 20:43:15
Writing application : mkvmerge v13.0.0 ('The Juggler') 64bit
Writing library : libebml v1.3.4 + libmatroska v1.4.5

Video
ID : 1
Format : AVC
Format/Info : Advanced Video Codec
Format profile : High@L4.1
Format settings, CABAC : Yes
Format settings, ReFrames : 5 frames
Codec ID : V_MPEG4/ISO/AVC
Duration : 1 h 30 min
Bit rate : 7 569 kb/s
Width : 1 920 pixels
Height : 804 pixels
Display aspect ratio : 2.40:1
Frame rate mode : Constant
Frame rate : 24.000 FPS
Color space : YUV
Chroma subsampling : 4:2:0
Bit depth : 8 bits
Scan type : Progressive
Bits/(Pixel*Frame) : 0.204
Stream size : 4.65 GiB (78%)
Writing library : x264 core 148 r2705 3f5ed56
Encoding settings : cabac=1 / ref=5 / deblock=1:-2:-2 / analyse=0x3:0x133 / me=umh / subme=10 / psy=1 / psy_rd=1.05:0.05 / mixed_ref=1 / me_range=32 / chroma_me=1 / trellis=2 / 8x8dct=1 / cqm=0 / deadzone=21,11 / fast_pskip=0 / chroma_qp_offset=-3 / threads=12 / lookahead_threads=2 / sliced_threads=0 / nr=0 / decimate=0 / interlaced=0 / bluray_compat=0 / constrained_intra=0 / bframes=10 / b_pyramid=2 / b_adapt=2 / b_bias=0 / direct=3 / weightb=1 / open_gop=0 / weightp=2 / keyint=240 / keyint_min=24 / scenecut=40 / intra_refresh=0 / rc_lookahead=50 / rc=2pass / mbtree=0 / bitrate=7569 / ratetol=1.0 / qcomp=0.60 / qpmin=0 / qpmax=69 / qpstep=4 / cplxblur=20.0 / qblur=0.5 / vbv_maxrate=50000 / vbv_bufsize=62500 / nal_hrd=none / filler=0 / ip_ratio=1.40 / pb_ratio=1.30 / aq=3:0.80
Language : French
Default : Yes
Forced : No

Audio #1
ID : 2
Format : AC-3
Format/Info : Audio Coding 3
Mode extension : CM (complete main)
Format settings, Endianness : Big
Codec ID : A_AC3
Duration : 1 h 30 min
Bit rate mode : Constant
Bit rate : 384 kb/s
Channel(s) : 6 channels
Channel positions : Front: L C R, Side: L R, LFE
Sampling rate : 48.0 kHz
Frame rate : 31.250 FPS (1536 spf)
Compression mode : Lossy
Stream size : 248 MiB (4%)
Title : iTunes
Language : Russian
Default : Yes
Forced : No

Audio #2
ID : 3
Format : DTS
Format/Info : Digital Theater Systems
Mode : 16
Format settings, Endianness : Big
Codec ID : A_DTS
Duration : 1 h 30 min
Bit rate mode : Constant
Bit rate : 1 509 kb/s
Channel(s) : 6 channels
Channel positions : Front: L C R, Side: L R, LFE
Sampling rate : 48.0 kHz
Frame rate : 93.750 FPS (512 spf)
Bit depth : 24 bits
Compression mode : Lossy
Stream size : 973 MiB (16%)
Title : Original
Language : French
Default : No
Forced : No

Menu
00:00:00.000 : en:00:00:00.000
00:12:27.250 : en:00:12:27.250
00:23:19.083 : en:00:23:19.083
00:36:24.833 : en:00:36:24.833
00:47:07.917 : en:00:47:07.917
01:06:21.583 : en:01:06:21.583
01:14:41.833 : en:01:14:41.833
01:22:59.042 : en:01:22:59.042
Скриншоты:
скриншот   скриншот   скриншот  
pb.wtf



Скачать Жмот через торрент http://i93.fastpic.ru/big/2017/0629/82/8cc60b3c932835a94d66b6fe14b35782.png Скачать фильм Жмот через торрент бесплантно в хорошем качестве Описание: Франсуа Готье - виртуозный скрипач. Но за талант, как водится, надо платить. У музыканта серьезный недостаток: он невероятно ... 10 10 10
Info! Золотая раздача, скачанное не засчитывается.
Торрент: Зарегистрирован [2017-06-28 21:05] · скачан: 573 раз
Статус: √ проверено
Размер: 5.96 GB
Как cкачать? Как скачать Жмот через торрент | qTorrent

% Раздел Тема Автор DL S | L
Фильмы 2016 [DVDrip, WEB-DLRip, HDrip] (DUB, MVO) [ 1.42 GB ] Жмот / Radin ! [2016 BDRip] - -Lexx- Скачать
1 | 0
Фильмы 2016 [DVDrip, WEB-DLRip, HDrip] (DUB, MVO) [ 1.42 GB ] Жмот / Radin ! [2016 BDRip] - Twi7ter Скачать
2 | 0
Фильмы (Blu-ray, BD-Remux, HDDVD) [ 15.53 GB ] Жмот / Radin ! [2016 BD Remux 1080p] bober100 Скачать
1 | 0
R.G. Resident & PiratVoice - Фильмы, Видео [ 1.52 GB ] Жмот / Radin ! [2016 BDRip-AVC от R.G. Resident] - -Lexx- Скачать
1 | 0

28-11-2019 20:33  

Отключить всю рекламу на сайте

28-06-2017 21:17 Жмот Скачать торрент  

Спасибо!pb.wtf
K-Lexx- писал(а):

Приятного просмотра.



    Дорогой пользователь! Огромная просьба, поблагодарите релизера, оцените раздачу и оставьте свои комментарий, если Вы скачали Жмот через торрент бесплатно! Внесите свою лепту в развитие PiratBit!
    Комментировать посты могут только пользователи прошедшие не сложную регистрацию
    Показать сообщения:    

    Жмот через торрент
    Скачать бесплатно Жмот
    Жмот скачать торрент
    Жмот смотреть онлайн
    Cкачать фильм Жмот бесплатно
    Жмот скачать торрент в хорошем качестве
    Жмот смотреть онлайн бесплатно в хорошем качестве


    Вы не можете начинать темы
    Вы не можете отвечать на сообщения
    Вы не можете редактировать свои сообщения
    Вы не можете удалять свои сообщения
    Вы не можете голосовать в опросах
    Вы не можете прикреплять файлы к сообщениям
    Вы можете скачивать файлы