Ссылка на приватное зеркало всего за 1$. Внимание количество ограничено!!!

iTunes

iTunes

iTunes

1

iTunes

iTunes

iTunes

iTunes

iTunes

30
pack

$ от Little Big

ВАЖНО

!!Акция!!

Alien_RageХит недели

RePack

Resident Evil 21

ИГРА 18+

pack

RePack

jed

!!Акция!!

Alien_Rage

RePack

fifa19

RePack

Assassins Creed: Odyssey

RePack

NEED FOR SPEED™ PAYBACK

4 сезон

9 сезон

Бесстыжие 9 сезон

Все сериалы

все сериалы на PB.wtf

RePack

FAR CRY 5
  

Смурфики: Затерянная деревня / Smurfs: The Lost Village (Келли Эсбёри) [2017, мультфильм, фэнтези, комедия, HDRip от R.G. Resident] Дубляж - [Лицензия / iTunes] pb.wtf

Смурфики: Затерянная деревня через торрент pb.wtf

Размер: 1.46 GB | Добавлен: 3 года назад | Торрент скачан:453 раза
Скачать  

29-06-2017 06:20 Смурфики: Затерянная деревня Скачать торрент  

Смурфики: Затерянная деревня / Smurfs: The Lost Village
««Кто здесь?»»

Год выпуска: 2017
Страна: США
Жанр: мультфильм, фэнтези, комедия, приключения, семейный
Продолжительность: 01:29:46
Перевод: Дубляж - [Лицензия / iTunes]
Субтитры: Русские (форс., вшитые), русские (полные, внешние)
Режиссер: Келли Эсбёри
В ролях:

Ариэль Уинтер (Smurflily, озвучка), Джо Манганьелло (Hefty, озвучка), Мишель Родригес (Smurfstorm, озвучка), Джулия Робертс (Smurfwillow, озвучка), Элли Кемпер (Smurfblossom, озвучка), Мэнди Пэтинкин (Papa Smurf, озвучка), Рэйн Уилсон (Gargamel, озвучка), Деми Ловато (Smurfette, озвучка), Джейк Джонсон (Grouchy, озвучка), Джек МакБрайер (Clumsy, озвучка), Дэнни Пуди (Brainy, озвучка), Габриэль Иглесиас (Jokey, озвучка)
Описание:
Смурфетта и её лучшие друзья Умник, Растяпа и Силач, отправляются на поиски таинственной затерянной деревни, стремясь опередить злобного волшебника Гаргамеля. В пути смурфиков ожидают невероятные опасности и головокружительные приключения, но игра стоит свеч, ведь в конечном итоге герои смогут разгадать самую большую загадку в истории своего существования!
Рейтинг:

MPAA: PG - Рекомендуется присутствие родителей
Качество: HDRip
Формат: AVI
Видео: XviD, 704x384 (1.85:1), 1931 kbps, 23,976 fps, 0,298 bpp
Аудио: AC3 / 5.1 / 48 kHz / 384 kbps /

Общее
Полное имя : E:\Smurfs.The.Lost.Village.2017.HDRip.R.G.Resident\Smurfs.The.Lost.Village.2017.HDRip.R.G.Resident.avi
Формат : AVI
Формат/Информация : Audio Video Interleave
Размер файла : 1,46 Гбайт
Продолжительность : 1 ч. 29 м.
Общий поток : 2325 Кбит/сек
Программа кодирования : VirtualDubModRus 1.5.10.2 (build 2542/release)
Библиотека кодирования : VirtualDubMod build 2542/release

Видео
Идентификатор : 0
Формат : MPEG-4 Visual
Профиль формата : Advanced Simple@L5
Параметр BVOP формата : 2
Параметр QPel формата : Нет
Параметр GMC формата : Без точки перехода
Параметр матрицы формата : Выборочная
Идентификатор кодека : XVID
Идентификатор кодека/Подсказка : XviD
Продолжительность : 1 ч. 29 м.
Битрейт : 1932 Кбит/сек
Ширина : 704 пикселя
Высота : 384 пикселя
Соотношение сторон : 1,85:1
Частота кадров : 23,976 (24000/1001) кадра/сек
Цветовое пространство : YUV
Субдискретизация насыщенности : 4:2:0
Битовая глубина : 8 бит
Тип развёртки : Прогрессивная
Метод сжатия : С потерями
Бит/(Пиксели*Кадры) : 0.298
Размер потока : 1,21 Гбайт (83%)
Библиотека кодирования : XviD 73

Аудио
Идентификатор : 1
Формат : AC-3
Формат/Информация : Audio Coding 3
Параметр Endianness формата : Big
Идентификатор кодека : 2000
Продолжительность : 1 ч. 29 м.
Вид битрейта : Постоянный
Битрейт : 384 Кбит/сек
Каналы : 6 каналов
Расположение каналов : Front: L C R, Side: L R, LFE
Частота : 48,0 КГц
Частота кадров : 31,250 кадров/сек (1536 spf)
Битовая глубина : 16 бит
Метод сжатия : С потерями
Размер потока : 247 Мбайт (17%)
Выравнивание : Разделение по промежуткам
Продолжительность промежутка : 42 мс. (1,00 видеокадр)
Время предзагрузки промежутка : 500 мс.
ServiceKind/String : Complete Main
pb.wtf



Скачать Смурфики: Затерянная деревня через торрент http://i77.fastpic.ru/big/2016/0417/a7/808a646271c761f7c7d87df3d366b3a7.png Скачать фильм Смурфики: Затерянная деревня через торрент бесплантно в хорошем качестве Описание: Смурфетта и её лучшие друзья Умник, Растяпа и Силач, отправляются на поиски таинственной затерянной деревни, стремясь опередить ... 9.9 10 15
Info! Золотая раздача, скачанное не засчитывается.
Торрент: Зарегистрирован [2017-06-29 06:20] · скачан: 453 раз
Статус: √ проверено
Размер: 1.46 GB
Как cкачать? Как скачать Смурфики: Затерянная деревня через торрент | qTorrent

% Раздел Тема Автор DL S | L
Ultra HD (UHD: 2K, 4K, 8K) [ 53.67 GB ] Смурфики: Затерянная деревня / Smurfs: The Lost Village [2017 Мультфильм UHD Blu-ray 2160p] DUB [] bober100 Скачать
1 | 0
Ultra HD (UHD: 2K, 4K, 8K) [ 51.11 GB ] Смурфики: Затерянная деревня / Smurfs: The Lost Village [2017 Мультфильм UHD BDRemux 2160p] DUB [] bober100 Скачать
1 | 0
Зарубежные Мультфильмы (BDRip 1080p, 720p, Blu-ray, BD-Remux) [ 19.4 GB ] Смурфики: Затерянная деревня / Smurfs: The Lost Village [2017 Мультфильм BD Remux 1080p] DUB [] bober100 Скачать
1 | 0
3D Мультфильмы [ 11.72 GB ] Смурфики: Затерянная деревня в 3Д / Smurfs: The Lost Village 3D [2017 Мультфильм Семейны BDrip 1080p] OverUnder / Вертикальная стереопара serega768 Скачать
1 | 0
Иностранные мультфильмы [ 1.46 GB ] Смурфики: Затерянная деревня / Smurfs: The Lost Village [2017 мультфильм BDRip] - [] Twi7ter Скачать
1 | 0
Иностранные мультфильмы [ 2.16 GB ] Смурфики: Затерянная деревня / Smurfs: The Lost Village [2017 мультфильм HDRip-AVC] 2xDUB [] - ExKinoRay Enigma2010 Скачать
2 | 0
Зарубежные Мультфильмы (BDRip 1080p, 720p, Blu-ray, BD-Remux) [ 11.54 GB ] Смурфики: Затерянная деревня / Smurfs: The Lost Village [2017 Мультфильм BDRip 1080p] DUB [ Blu-ray CEE] bober100 Скачать
2 | 0

28-11-2019 20:33  

Отключить всю рекламу на сайте

    Дорогой пользователь! Огромная просьба, поблагодарите релизера, оцените раздачу и оставьте свои комментарий, если Вы скачали Смурфики: Затерянная деревня через торрент бесплатно! Внесите свою лепту в развитие PiratBit!
    Комментировать посты могут только пользователи прошедшие не сложную регистрацию
    Показать сообщения:    

    Смурфики: Затерянная деревня через торрент
    Скачать бесплатно Смурфики: Затерянная деревня
    Смурфики: Затерянная деревня скачать торрент
    Смурфики: Затерянная деревня смотреть онлайн
    Cкачать фильм Смурфики: Затерянная деревня бесплатно
    Смурфики: Затерянная деревня скачать торрент в хорошем качестве
    Смурфики: Затерянная деревня смотреть онлайн бесплатно в хорошем качестве


    Вы не можете начинать темы
    Вы не можете отвечать на сообщения
    Вы не можете редактировать свои сообщения
    Вы не можете удалять свои сообщения
    Вы не можете голосовать в опросах
    Вы не можете прикреплять файлы к сообщениям
    Вы можете скачивать файлы