Ссылка на приватное зеркало нашего сайта всего за 1$. Внимание количество ограничено!!!

2 сезон

iTunes

1 сезон

1

iTunes

iTunes

iTunes

1 сезон

RePack

30

ИГРА 18+

pack

ВАЖНО

!!Акция!!

Alien_RageХит недели

RePack

MK11
pack

Забери бонус

RePack

jed

!!Акция!!

Alien_Rage

RePack

fifa19

RePack

Assassins Creed: Odyssey

RePack

NEED FOR SPEED™ PAYBACK

4 сезон

9 сезон

Бесстыжие 9 сезон

Все сериалы

все сериалы на PB.wtf

RePack

FAR CRY 5
  

Форсаж 8 / The Fate of the Furious (Ф. Гэри Грей) [2017 г., Боевик, триллер, криминал, BDRip (720p), Дубляж Лицензия / iTunes] pb.wtf

Форсаж 8 через торрент pb.wtf

Размер: 7.02 GB | Добавлен: 3 года 3 мес. назад | Торрент скачан:316 раз
Скачать  

29-06-2017 10:27 Форсаж 8 Скачать торрент  

Форсаж 8 / The Fate of the Furious
Год выпуска: 2017
Страна: США
Жанр: Боевик, триллер, криминал
Продолжительность: 02:15:57
Перевод: Дубляж Лицензия / iTunes+ Оригинал
Субтитры: Русские, английские

Режиссер: Ф. Гэри Грей

В ролях: Вин Дизель, Дуэйн Джонсон, Джейсон Стэйтем, Мишель Родригес, Тайриз Гибсон, Лудакрис, Натали Эммануэль, Курт Расселл, Скотт Иствуд, Шарлиз Терон

Описание: Доминик и Летти проводят медовый месяц в Гаване. Все шло просто замечательно, пока Доминик не посмотрел одно видео на некоем загадочном смартфоне. После просмотра он перестает узнавать свою сожительницу, гоняется за ней по дому с мухобойкой и горшком с геранью в руках, а затем так вообще похищает электрический выключатель с военной базы в Берлине. И теперь самой крутой команде в мире необходимо объединиться с бывшими врагами и с грохотом посетить различные закоулки планеты, чтобы найти своего разбушевавшегося лидера и остановить опасную киберпреступницу.

Качество: BDRip (720p)
Формат: MKV
Видео кодек: AVC
Аудио кодек: AC3-DTS
Видео: MPEG-4 AVC, (1280x536),5500 Кбит/с, 23.976 кадра/сек
Аудио#1: AC3, 6 ch,384 kbps (Rus) 48.0 KHz Дублированное [iTunes] Лицензия
Аудио#2: DTS, 6 ch,1509 kbps (Eng) 48.0 KHz Оригинал
скриншот   скриншот   скриншот  

Тип потока: Видео
Длительность: 02:15:57

Video
ID : 1
Format : AVC
Format/Info : Advanced Video Codec
Format profile : High@L4.1
Format settings, CABAC : Yes
Format settings, ReFrames : 12 frames
Codec ID : V_MPEG4/ISO/AVC
Duration : 2 h 15 min
Bit rate : 5 500 kb/s
Width : 1 280 pixels
Height : 536 pixels
Display aspect ratio : 2.40:1
Frame rate mode : Constant
Frame rate : 23.976 (24000/1001) FPS
Color space : YUV
Chroma subsampling : 4:2:0
Bit depth : 8 bits
Scan type : Progressive
Bits/(Pixel*Frame) : 0.334
Stream size : 5.22 GiB (74%)
Writing library : x264 core 148 r2665kMod a01e339
Language : English
Default : Yes
Forced : No

Audio #1
ID : 2
Format : AC-3
Format/Info : Audio Coding 3
Format settings, Endianness : Big
Codec ID : A_AC3
Duration : 2 h 15 min
Bit rate mode : Constant
Bit rate : 384 kb/s
Channel(s) : 6 channels
Channel positions : Front: L C R, Side: L R, LFE
Sampling rate : 48.0 kHz
Frame rate : 31.250 FPS (1536 spf)
Bit depth : 16 bits
Compression mode : Lossy
Stream size : 373 MiB (5%)
Title : iTunes
Language : Russian
Service kind : Complete Main
Default : No
Forced : No

Audio #2
ID : 3
Format : DTS
Format/Info : Digital Theater Systems
Mode : 16
Format settings, Endianness : Big
Codec ID : A_DTS
Duration : 2 h 15 min
Bit rate mode : Constant
Bit rate : 1 509 kb/s
Channel(s) : 6 channels
Channel positions : Front: L C R, Side: L R, LFE
Sampling rate : 48.0 kHz
Frame rate : 93.750 FPS (512 spf)
Bit depth : 24 bits
Compression mode : Lossy
Stream size : 1.43 GiB (20%)
Title : Original
Language : English
Default : Yes
Forced : No

Text #1
ID : 4
Format : UTF-8
Codec ID : S_TEXT/UTF8
Codec ID/Info : UTF-8 Plain Text
Duration : 2 h 7 min
Bit rate : 1 b/s
Count of elements : 43
Stream size : 1.57 KiB (0%)
Title : Forced
Language : Russian
Default : Yes
Forced : No

Text #2
ID : 5
Format : UTF-8
Codec ID : S_TEXT/UTF8
Codec ID/Info : UTF-8 Plain Text
Duration : 2 h 14 min
Bit rate : 76 b/s
Count of elements : 1513
Stream size : 75.9 KiB (0%)
Title : Full
Language : Russian
Default : No
Forced : No

Text #3
ID : 6
Format : UTF-8
Codec ID : S_TEXT/UTF8
Codec ID/Info : UTF-8 Plain Text
Duration : 2 h 3 min
Bit rate : 52 b/s
Count of elements : 1516
Stream size : 47.2 KiB (0%)
Title : Full
Language : English
Default : No
Forced : No

Text #4
ID : 7
Format : UTF-8
Codec ID : S_TEXT/UTF8
Codec ID/Info : UTF-8 Plain Text
Duration : 2 h 4 min
Bit rate : 59 b/s
Count of elements : 1841
Stream size : 54.0 KiB (0%)
Title : SDH
Language : English
Default : No
Forced : No

pb.wtf



Скачать Форсаж 8 через торрент http://pic1.kartinco.top/images/11/kuxr4.jpg Скачать фильм Форсаж 8 через торрент бесплантно в хорошем качестве Описание: Доминик и Летти проводят медовый месяц в Гаване. Все шло просто замечательно, пока Доминик не посмотрел одно видео на некоем ... 8.8 10 16
Info! Золотая раздача, скачанное не засчитывается.
Торрент: Зарегистрирован [2017-06-29 10:27] · скачан: 316 раз
Статус: √ проверено
Размер: 7.02 GB
Как cкачать? Как скачать Форсаж 8 через торрент | qTorrent

% Раздел Тема Автор DL S | L
R.G. Resident & PiratVoice - Фильмы, Видео [ 2.19 GB ] Форсаж 8 / The Fate of the Furious [2017 BDRip ] - -Lexx- Скачать
1 | 0
R.G. Resident & PiratVoice - Фильмы, Видео [ 5.6 GB ] Форсаж 8 / The Fate of the Furious [2017 BDRip 720p] - - R.G.Resident schultz Скачать
1 | 0


Последний раз редактировалось: Бумер (2017-06-29 17:25), всего редактировалось 4 раз(а)

28-11-2019 20:33  

Отключить всю рекламу на сайте

11-07-2017 17:26 Форсаж 8 Скачать торрент  

Персонажей из первых частей, превратили в какой-то синдикат по предотвращению глобальных войн. Аля супергерои или суперагенты. Подразделения государства курят в сторонке.
В общем, штампуют серии, прям как комикс.
Скоро будет что-то, типа, рыцарь дорог. И я, не удивлюсь.pb.wtf



    Дорогой пользователь! Огромная просьба, поблагодарите релизера, оцените раздачу и оставьте свои комментарий, если Вы скачали Форсаж 8 через торрент бесплатно! Внесите свою лепту в развитие PiratBit!
    Комментировать посты могут только пользователи прошедшие не сложную регистрацию
    Показать сообщения:    

    Форсаж 8 через торрент
    Скачать бесплатно Форсаж 8
    Форсаж 8 скачать торрент
    Форсаж 8 смотреть онлайн
    Cкачать фильм Форсаж 8 бесплатно
    Форсаж 8 скачать торрент в хорошем качестве
    Форсаж 8 смотреть онлайн бесплатно в хорошем качестве


    Вы не можете начинать темы
    Вы не можете отвечать на сообщения
    Вы не можете редактировать свои сообщения
    Вы не можете удалять свои сообщения
    Вы не можете голосовать в опросах
    Вы не можете прикреплять файлы к сообщениям
    Вы можете скачивать файлы