Death Stranding+DLC+АВТОАКТИВАЦИЯ

iTunes

iTunes

iTunes

1

iTunes

iTunes

iTunes

iTunes

iTunes

30
pack

$ от Little Big

ВАЖНО

!!Акция!!

Alien_RageХит недели

RePack

Resident Evil 21

ИГРА 18+

pack

RePack

jed

!!Акция!!

Alien_Rage

RePack

fifa19

RePack

Assassins Creed: Odyssey

RePack

NEED FOR SPEED™ PAYBACK

4 сезон

9 сезон

Бесстыжие 9 сезон

Все сериалы

все сериалы на PB.wtf

RePack

FAR CRY 5
  

Окча / Okja (Пон Джун-хо) [2017, Фантастика, Боевик, Драма, Приключения, WEBRip 1080p] VO [BadBajo] pb.wtf

Окча через торрент pb.wtf

Размер: 6.58 GB | Добавлен: 3 года назад | Торрент скачан:200 раз
Скачать  

29-06-2017 19:06 Окча Скачать торрент  

Окча / Okja
Год выпуска: 2017
Страна: Корея Южная, США, Kate Street Picture Company, Lewis Pictures, Plan B Entertainment
Жанр: Фантастика, Боевик, Драма, Приключения

Продолжительность: 02:01:20
Перевод: Одноголосый, закадровый) - А.Важенин (BadBajo)
Автор перевода: Сергей Довгаль (netflix)
Субтитры: русские, английские
Примечание: релиз без рекламы

Режиссер: Пон Джун-хо

В ролях: Ан Со-хён, Тильда Суинтон, Джейк Джилленхол, Пол Дано, Джанкарло Эспозито, Юн Джэ-мун, Стивен Ян, Лили Коллинз, Дэниэл Хеншэлл, Девон Бостик

Описание:
Корпорация «Мирандо» создала необычных поросят и раздала их фермерам по всему миру. На протяжении десяти лет экспериментальная свинья Окча была лучшим другом девочки Ми-джа, они мирно жили в южнокорейских горах и заботились друг о друге. Но в один ужасный день идиллическая жизнь друзей прервалась — корпорация забрала свою собственность. У стервозной генеральной директрисы Люси Мирандо свои, не самые гуманные, планы на необычного зверя. Конечно же, храбрая девочка не бросит друга в беде, и Ми-джа отправляется спасать Окчу, но мир оказывается намного безумней, чем она могла себе представить.



Качество: WEBRip 1080р
Формат: MKV
Видео: AVC/H.264, 1920х804, ~6993 kbps
Аудио: AC3, 6 ch, 384 Kbps l Русский, BadBajo
Аудио: AC3, 6 ch, 384 Kbps l Английский
Сэмпл
Complete name : C: okja.2017.1080p.webrip.x264_rus_BadBajo.mkv
Format : Matroska
Format version : Version 4 / Version 2
File size : 6.58 GiB
Duration : 2 h 1 min
Overall bit rate : 7 763 kb/s
Movie name : okja.2017.1080_rus_BadBajo
Encoded date : UTC 2017-06-29 15:16:04
Writing application : mkvmerge v9.5.0 ('Quiet Fire') 64bit
Writing library : libebml v1.3.4 + libmatroska v1.4.5
Cover : Yes
Attachments : cover.jpg

Video
ID : 1
Format : AVC
Format/Info : Advanced Video Codec
Format profile : High@L4.1
Format settings, CABAC : Yes
Format settings, ReFrames : 5 frames
Codec ID : V_MPEG4/ISO/AVC
Duration : 2 h 1 min
Bit rate : 6 993 kb/s
Width : 1 920 pixels
Height : 804 pixels
Display aspect ratio : 2.40:1
Frame rate mode : Constant
Frame rate : 24.000 FPS
Color space : YUV
Chroma subsampling : 4:2:0
Bit depth : 8 bits
Scan type : Progressive
Bits/(Pixel*Frame) : 0.189
Stream size : 5.93 GiB (90%)
Writing library : x264 core 152 r2851 ba24899
Encoding settings : cabac=1 / ref=5 / deblock=1:-3:-3 / analyse=0x3:0x113 / me=umh / subme=8 / psy=1 / psy_rd=1.00:0.15 / mixed_ref=1 / me_range=16 / chroma_me=1 / trellis=2 / 8x8dct=1 / cqm=0 / deadzone=21,11 / fast_pskip=0 / chroma_qp_offset=-2 / threads=12 / lookahead_threads=2 / sliced_threads=0 / nr=0 / decimate=1 / interlaced=0 / bluray_compat=0 / constrained_intra=0 / bframes=3 / b_pyramid=2 / b_adapt=1 / b_bias=0 / direct=3 / weightb=1 / open_gop=0 / weightp=2 / keyint=240 / keyint_min=24 / scenecut=40 / intra_refresh=0 / rc=crf / mbtree=0 / crf=17.0 / qcomp=0.60 / qpmin=0 / qpmax=69 / qpstep=4 / ip_ratio=1.40 / pb_ratio=1.30 / aq=3:0.80
Language : English
Default : Yes
Forced : No

Audio #1
ID : 2
Format : AC-3
Format/Info : Audio Coding 3
Format settings, Endianness : Big
Codec ID : A_AC3
Duration : 2 h 1 min
Bit rate mode : Constant
Bit rate : 384 kb/s
Channel(s) : 6 channels
Channel positions : Front: L C R, Side: L R, LFE
Sampling rate : 48.0 kHz
Frame rate : 31.250 FPS (1536 spf)
Bit depth : 16 bits
Compression mode : Lossy
Stream size : 333 MiB (5%)
Title : okja.2017_rus_BadBajo
Language : Russian
Service kind : Complete Main
Default : Yes
Forced : Yes

Audio #2
ID : 3
Format : AC-3
Format/Info : Audio Coding 3
Format settings, Endianness : Big
Codec ID : A_AC3
Duration : 2 h 1 min
Bit rate mode : Constant
Bit rate : 384 kb/s
Channel(s) : 6 channels
Channel positions : Front: L C R, Side: L R, LFE
Sampling rate : 48.0 kHz
Frame rate : 31.250 FPS (1536 spf)
Bit depth : 16 bits
Compression mode : Lossy
Stream size : 333 MiB (5%)
Language : English
Service kind : Complete Main
Default : No
Forced : No

Text #1
ID : 4
Format : UTF-8
Codec ID : S_TEXT/UTF8
Codec ID/Info : UTF-8 Plain Text
Duration : 1 h 53 min
Bit rate : 7 b/s
Count of elements : 285
Stream size : 6.56 KiB (0%)
Title : Forced
Language : English
Default : No
Forced : No

Text #2
ID : 5
Format : UTF-8
Codec ID : S_TEXT/UTF8
Codec ID/Info : UTF-8 Plain Text
Duration : 1 h 59 min
Bit rate : 40 b/s
Count of elements : 1097
Stream size : 35.7 KiB (0%)
Language : English
Default : No
Forced : No

Text #3
ID : 6
Format : UTF-8
Codec ID : S_TEXT/UTF8
Codec ID/Info : UTF-8 Plain Text
Duration : 1 h 59 min
Bit rate : 63 b/s
Count of elements : 1117
Stream size : 55.7 KiB (0%)
Language : Russian
Default : No
Forced : No
Генетически модифицированный организм (ГМО) — организм, генотип которого был искусственно изменён при помощи методов генной инженерии. Это определение может применяться для растений, животных и микроорганизмов. ВОЗ даёт более узкое определение: "Генетически модифицированные организмы (ГМО) — это организмы (т.е. растения, животные или микроорганизмы), чей генетический материал (ДНК) был изменен, причём такие изменения были бы невозможны в природе в результате размножения или естественной рекомбинации." Генетические изменения, как правило, производятся в научных или хозяйственных целях. Генетическая модификация отличается целенаправленным изменением генотипа организма в отличие от случайного, характерного для естественного и искусственного мутационного процесса.
Основным видом генетической модификации в настоящее время является использование трансгенов для создания трансгенных организмов.
(Википедия).
Скриншоты:
pb.wtf



Скачать Окча через торрент http://funkyimg.com/i/2uUrE.jpg Скачать фильм Окча через торрент бесплантно в хорошем качестве Описание:Корпорация «Мирандо» создала необычных поросят и раздала их фермерам по всему миру. На протяжении десяти лет экспериментальная ... 10 10 4
Торрент: Зарегистрирован [2017-06-29 19:06] · скачан: 200 раз
Статус: √ проверено
Размер: 6.58 GB
Как cкачать? Как скачать Окча через торрент | qTorrent

% Раздел Тема Автор DL S | L
Фильмы (WEB-DL 720p, 1080p) [ 6.58 GB ] Окча / Okja [2017 WEBRip 1080p] MVO [AlexFilm] bober100 Скачать
1 | 0
R.G. Resident & PiratVoice - Фильмы, Видео [ 2.38 GB ] Окча / Okja [2017 WEBRip-AVC от R.G. Resident] MVO [AlexFilm] VO [BadBajo] -Lexx- Скачать
1 | 0
T Фильмы 2017 [DVDrip, WEB-DLRip, HDrip] (DUB, MVO) [ 1.42 GB ] Окча / Okja [2017 WEBRip] [MVO] killermax2013 Скачать
1 | 0
Фильмы с авторской озвучкой [ 1.45 GB ] Окча / Okja [2017 WEBRip] AVO [BadBajo] - ExKinoRay Enigma2010 Скачать
1 | 0


Последний раз редактировалось: -Lexx- (2017-06-30 04:43), всего редактировалось 2 раз(а)

28-11-2019 20:33  

Отключить всю рекламу на сайте

29-06-2017 19:12 Окча Скачать торрент  

артхаус походу, нужно будет глянуть как проф озвучка появитьсяpb.wtf



    Дорогой пользователь! Огромная просьба, поблагодарите релизера, оцените раздачу и оставьте свои комментарий, если Вы скачали Окча через торрент бесплатно! Внесите свою лепту в развитие PiratBit!
    Комментировать посты могут только пользователи прошедшие не сложную регистрацию
    Показать сообщения:    

    Окча через торрент
    Скачать бесплатно Окча
    Окча скачать торрент
    Окча смотреть онлайн
    Cкачать фильм Окча бесплатно
    Окча скачать торрент в хорошем качестве
    Окча смотреть онлайн бесплатно в хорошем качестве


    Вы не можете начинать темы
    Вы не можете отвечать на сообщения
    Вы не можете редактировать свои сообщения
    Вы не можете удалять свои сообщения
    Вы не можете голосовать в опросах
    Вы не можете прикреплять файлы к сообщениям
    Вы можете скачивать файлы